<?xml version="1.0" standalone="no"?>
<!DOCTYPE svg PUBLIC "-//W3C//DTD SVG 1.1//EN" "http://www.w3.org/Graphics/SVG/1.1/DTD/svg11.dtd" >
<svg xmlns="http://www.w3.org/2000/svg">
<metadata>
This is a custom SVG webfont generated by Font Squirrel.
Copyright   : Copyright 19901998 Bitstream Inc  All rights reserved
</metadata>
<defs>
<font id="webfontrFF7tfEn" horiz-adv-x="940" >
<font-face units-per-em="2048" ascent="1556" descent="-492" />
<missing-glyph horiz-adv-x="471" />
<glyph unicode=" "  horiz-adv-x="471" />
<glyph unicode="&#x09;" horiz-adv-x="471" />
<glyph unicode="&#xa0;" horiz-adv-x="471" />
<glyph unicode="!" horiz-adv-x="569" d="M231 348l-18 1127h152l-27 -1127h-107zM209 0v166h153v-166h-153z" />
<glyph unicode="&#x22;" horiz-adv-x="551" d="M451 1434v-553h-86v553h86zM186 1434v-553h-86v553h86z" />
<glyph unicode="#" horiz-adv-x="1575" d="M979 866h-270l-99 -282h269zM915 1454l-174 -498h271l176 498h110l-174 -498h322l-31 -90h-323l-101 -282h348l-30 -90h-351l-174 -494h-112l176 494h-270l-179 -494h-110l174 494h-334l31 90h336l100 282h-360l28 90h365l176 498h110z" />
<glyph unicode="$" d="M434 838v489q-88 -3 -135 -58.5t-47 -158.5q0 -95 41 -156t141 -116zM516 647v-544q108 9 155.5 66.5t47.5 180.5q0 107 -43 170.5t-160 126.5zM434 -184v184q-168 3 -255 96.5t-87 272.5v30h125v-37q0 -134 53.5 -199t163.5 -65v600q-177 100 -242 186.5t-65 215.5 q0 150 79 235t228 92v152h82v-152q157 -6 231 -86.5t74 -244.5q0 -7 -1 -23t-1 -24h-121v38q0 124 -42 178.5t-139 61.5l-1 -536q203 -111 266.5 -198t63.5 -237q0 -174 -83.5 -263.5t-245.5 -92.5l-1 -184h-82z" />
<glyph unicode="%" horiz-adv-x="1362" d="M332 -25l610 1475h94l-614 -1475h-90zM322 1362q-79 0 -117.5 -68t-38.5 -207q0 -146 38.5 -217t117.5 -71q77 0 116 70t39 208t-40 211.5t-115 73.5zM594 1067q0 -175 -69.5 -265.5t-202.5 -90.5q-138 0 -205.5 91.5t-67.5 278.5t67.5 278t205.5 91q135 0 203.5 -96 t68.5 -287zM1040 627q-78 0 -116.5 -68.5t-38.5 -206.5q0 -146 38.5 -217.5t116.5 -71.5q77 0 116.5 70.5t39.5 208.5q0 137 -40.5 211t-115.5 74zM1040 715q136 0 204.5 -96t68.5 -287q0 -175 -69.5 -266t-203.5 -91q-137 0 -204.5 92t-67.5 279t67.5 278t204.5 91z" />
<glyph unicode="&#x26;" horiz-adv-x="948" d="M580 0q-162 0 -225 10.5t-107 34.5q-83 45 -122.5 133t-39.5 228q0 145 53.5 226t177.5 126q-103 23 -160 112t-57 228q0 185 116.5 282t338.5 97q26 0 39.5 -0.5t25.5 -1.5l1 -115h-43q-185 0 -261.5 -61t-76.5 -205q0 -135 71.5 -209t202.5 -74h127v227h133v-227h166 v-109h-166v-702h-194zM641 115v587h-102q-158 0 -237 -71.5t-79 -214.5q0 -68 12.5 -121t38.5 -94q31 -47 77.5 -66.5t158.5 -19.5h29h102z" />
<glyph unicode="'" horiz-adv-x="285" d="M186 1434v-553h-86v553h86z" />
<glyph unicode="(" horiz-adv-x="569" d="M369 -285q-89 263 -131.5 489.5t-42.5 432.5q0 198 42 415t125 445h99q-62 -220 -92.5 -435.5t-30.5 -428.5q0 -218 33 -445t100 -473h-102z" />
<glyph unicode=")" horiz-adv-x="569" d="M219 -285h-104q68 250 101.5 476.5t33.5 441.5q0 213 -31 428.5t-92 435.5h96q84 -228 126 -445t42 -415q0 -209 -42.5 -436t-129.5 -486z" />
<glyph unicode="*" d="M471 1120l-115 -246l-98 58l156 221l-271 -23v113l271 -22l-156 221l98 55l115 -244l113 244l98 -55l-154 -221l269 22v-113l-269 23l154 -221l-98 -58z" />
<glyph unicode="+" horiz-adv-x="1706" d="M893 1221v-570h559v-82h-559v-569h-80v569h-559v82h559v570h80z" />
<glyph unicode="," horiz-adv-x="469" d="M104 -207l82 373h156l-123 -373h-115z" />
<glyph unicode="-" horiz-adv-x="569" d="M74 457v114h422v-114h-422z" />
<glyph unicode="." horiz-adv-x="469" d="M156 0v166h157v-166h-157z" />
<glyph unicode="/" horiz-adv-x="569" d="M27 -190h-103l592 1683h105z" />
<glyph unicode="0" d="M471 1452q95 0 164 -31.5t115 -95.5q51 -72 72.5 -194.5t21.5 -417.5q0 -297 -21.5 -418.5t-72.5 -192.5q-47 -64 -116.5 -96.5t-162.5 -32.5q-94 0 -164.5 32.5t-116.5 96.5q-51 71 -72.5 192.5t-21.5 418.5t21.5 419t72.5 193q46 64 116 95.5t165 31.5zM715 713 q0 382 -54 507.5t-192 125.5t-192 -125.5t-54 -507.5t54 -506.5t192 -124.5t192 124.5t54 506.5z" />
<glyph unicode="1" d="M578 0h-129v1253q-31 -42 -88 -88.5t-154 -107.5v145q72 42 135.5 98t120.5 127h115v-1427z" />
<glyph unicode="2" d="M831 0h-722v127l458 686q65 98 98 180.5t33 145.5q0 92 -57 146t-156 54q-116 0 -176.5 -67t-60.5 -195h-133v17q0 172 96 265t272 93q169 0 257.5 -80t88.5 -233q0 -90 -38 -187t-136 -243l-397 -592h573v-117z" />
<glyph unicode="3" d="M78 356h129v-12q0 -125 58.5 -189.5t172.5 -64.5q119 0 174.5 71t55.5 224q0 169 -58 235t-204 66q-22 0 -33.5 -0.5t-19.5 -1.5l-1 113q171 0 238 61.5t67 216.5q0 143 -52 205.5t-169 62.5q-102 0 -157.5 -59.5t-55.5 -169.5v-29h-127v29q0 167 86.5 251.5t255.5 84.5 q188 0 269 -84.5t81 -282.5q0 -149 -52.5 -231t-166.5 -111q126 -13 180 -95t54 -263q0 -202 -93.5 -306t-275.5 -104q-166 0 -262 90t-96 246q0 19 0.5 29t1.5 18z" />
<glyph unicode="4" d="M575 0v365h-501v151l438 911h195v-956h159v-106h-159v-365h-132zM575 469v602q1 63 3.5 131t7.5 145l-44 -105l-42 -93l-330 -680h405z" />
<glyph unicode="5" d="M104 340h134v-12q0 -119 56 -181.5t163 -62.5q132 0 187.5 90.5t55.5 308.5q0 162 -56.5 239t-176.5 77q-88 0 -144.5 -38t-76.5 -110h-125l14 776h641v-110h-518l-14 -508q39 47 101.5 70.5t148.5 23.5q174 0 258 -103t84 -319q0 -272 -88.5 -389t-292.5 -117 q-179 0 -265 88t-86 271v6z" />
<glyph unicode="6" d="M246 973v-219q22 63 91.5 102t162.5 39q175 0 256.5 -107t81.5 -337q0 -245 -88.5 -360.5t-274.5 -115.5q-95 0 -169 30.5t-120 88.5q-46 59 -65 160t-19 356v105q0 193 10 325t29 191q35 107 117 161t209 54q174 0 259 -77.5t85 -235.5v-23h-125v6q0 116 -51 170.5 t-158 54.5q-124 0 -177.5 -84t-53.5 -284zM473 88q123 0 178.5 85.5t55.5 275.5q0 178 -53 255.5t-171 77.5q-123 0 -183 -87t-60 -267q0 -168 58.5 -254t174.5 -86z" />
<glyph unicode="7" d="M256 0l449 1305h-594v122h716v-161l-430 -1266h-141z" />
<glyph unicode="8" d="M313 733q-102 38 -148 114t-46 210q0 183 88 275.5t262 92.5q175 0 263.5 -92.5t88.5 -275.5q0 -134 -46 -210t-148 -114q109 -21 162 -111t53 -257q0 -196 -92.5 -293t-278.5 -97q-189 0 -281 96.5t-92 293.5q0 165 53 255t162 113zM471 78q116 0 176 73.5t60 217.5 q0 158 -57 234.5t-175 76.5q-127 0 -185.5 -74.5t-58.5 -236.5q0 -147 59.5 -219t180.5 -72zM686 1053q0 138 -52.5 202t-164.5 64q-113 0 -166 -64.5t-53 -201.5t55 -205t166 -68q106 0 160.5 69t54.5 204z" />
<glyph unicode="9" d="M694 449v221q-22 -64 -92 -104t-162 -40q-175 0 -256.5 107.5t-81.5 337.5q0 244 88.5 359.5t274.5 115.5q95 0 169 -30.5t120 -88.5q46 -59 65 -160t19 -356v-104q0 -194 -10 -325t-29 -189q-36 -108 -118 -163t-208 -55q-173 0 -258.5 78t-85.5 236v22h125v-6 q0 -115 51 -170t158 -55q124 0 177.5 84t53.5 285zM467 1333q-123 0 -178.5 -84.5t-55.5 -273.5q0 -178 53 -257t171 -79q123 0 183 87.5t60 266.5q0 169 -58.5 254.5t-174.5 85.5z" />
<glyph unicode=":" horiz-adv-x="498" d="M170 862v166h158v-166h-158zM170 0v166h158v-166h-158z" />
<glyph unicode=";" horiz-adv-x="498" d="M170 862v166h158v-166h-158zM80 -209l90 375h158l-129 -375h-119z" />
<glyph unicode="&#x3c;" horiz-adv-x="1706" d="M1442 1034l-1045 -424l1045 -424v-88l-1178 482v61l1178 483v-90z" />
<glyph unicode="=" horiz-adv-x="1706" d="M1452 469v-82h-1198v82h1198zM1452 831v-79h-1198v79h1198z" />
<glyph unicode="&#x3e;" horiz-adv-x="1706" d="M1442 641v-61l-1178 -482v88l1045 424l-1045 424v90z" />
<glyph unicode="?" horiz-adv-x="758" d="M315 348v170q0 57 1 80.5t3 39.5q8 51 84 172l21 34l17 27q94 139 94 300q0 107 -42.5 160t-127.5 53q-78 0 -114 -46.5t-36 -147.5v-35h-135q0 7 -1 21.5t-1 21.5q0 148 71.5 221.5t215.5 73.5q149 0 226 -78.5t77 -230.5q0 -99 -25 -187t-76 -170l-59 -88 q-40 -59 -51 -84q-12 -28 -17.5 -61t-5.5 -84v-45v-117h-119zM291 0v166h153v-166h-153z" />
<glyph unicode="@" horiz-adv-x="2048" d="M1303 827l61 129h80l-137 -553q-10 -36 -15.5 -64.5t-5.5 -43.5q0 -44 30.5 -68t86.5 -24q48 0 100 19.5t103 56.5q101 74 162 207t61 282q0 273 -199.5 439.5t-525.5 166.5q-168 0 -310.5 -48t-258.5 -144q-154 -128 -232 -297t-78 -375q0 -327 221.5 -522t591.5 -195 q161 0 324 50.5t299 142.5l29 -45q-146 -110 -308.5 -165t-339.5 -55q-187 0 -343 46.5t-277 138.5q-152 115 -226.5 267.5t-74.5 348.5q0 162 50.5 307t147.5 265q144 175 345.5 265.5t449.5 90.5q160 0 304.5 -44t248.5 -124q128 -98 194 -226.5t66 -277.5 q0 -169 -63 -308t-181 -232q-67 -54 -145.5 -82.5t-159.5 -28.5q-95 0 -143.5 36.5t-48.5 108.5q0 12 3 34q1 3 1 5q-49 -88 -125 -136t-166 -48q-154 0 -233.5 83t-79.5 243q0 228 134.5 386t326.5 158q95 0 160 -43t96 -127zM1219 467l63 254q-22 99 -81.5 151t-151.5 52 q-152 0 -255.5 -138t-103.5 -340q0 -115 57.5 -180t159.5 -65q111 0 196 72.5t116 193.5z" />
<glyph unicode="A" horiz-adv-x="1141" d="M315 508h500l-246 831zM162 0h-135l473 1475h149l463 -1475h-145l-121 393h-567z" />
<glyph unicode="B" horiz-adv-x="1014" d="M139 0v1475h293q280 0 372.5 -79t92.5 -294q0 -150 -50.5 -229t-162.5 -105q126 -26 185 -113t59 -245q0 -128 -31 -210.5t-96 -131.5q-50 -37 -124.5 -52.5t-244.5 -15.5h-293zM268 815h156q187 0 262.5 65t75.5 224q0 155 -60 208.5t-270 53.5h-164v-551zM268 109h164 q224 0 289 63.5t65 241.5q0 166 -76 231.5t-286 65.5h-156v-602z" />
<glyph unicode="C" horiz-adv-x="1028" d="M795 430h141v-6q0 -214 -106.5 -331.5t-301.5 -117.5q-110 0 -195 44t-140 128q-44 67 -62 169.5t-18 359.5v57q0 222 10 326t33 180q37 121 138 189.5t243 68.5q204 0 295.5 -97.5t91.5 -314.5v-8h-137q-2 164 -60 238t-186 74q-160 0 -224.5 -124t-64.5 -456 q0 -178 6.5 -300t20.5 -196q20 -105 86 -163t165 -58q124 0 194.5 81t70.5 224v33z" />
<glyph unicode="D" horiz-adv-x="1096" d="M272 113h166q120 0 189 16.5t110 54.5q59 55 83 168.5t24 380.5q0 218 -15.5 335.5t-50.5 174.5q-42 68 -114.5 95.5t-225.5 27.5h-166v-1253zM139 1475h330q142 0 224.5 -23.5t140.5 -77.5q81 -76 115 -216t34 -425q0 -281 -34.5 -419.5t-114.5 -213.5 q-58 -53 -140.5 -76.5t-224.5 -23.5h-330v1475z" />
<glyph unicode="E" horiz-adv-x="883" d="M801 0h-662v1475h662v-115h-529v-545h498v-108h-498v-584h529v-123z" />
<glyph unicode="F" horiz-adv-x="801" d="M139 0v1475h619v-115h-486v-545h453v-108h-453v-707h-133z" />
<glyph unicode="G" horiz-adv-x="1085" d="M836 670h-291v106h426v-735q-117 -33 -222.5 -49.5t-199.5 -16.5q-105 0 -189.5 35.5t-138.5 102.5q-59 73 -83.5 201.5t-24.5 435.5q0 287 26.5 414t89.5 204q55 65 138 97t198 32q211 0 313.5 -90.5t102.5 -276.5v-22h-127q0 144 -67.5 211t-213.5 67 q-82 0 -142.5 -27.5t-98.5 -82.5q-43 -61 -60.5 -173t-17.5 -366q0 -255 17.5 -366.5t60.5 -171.5q40 -56 101.5 -83.5t144.5 -27.5q53 0 117.5 11.5t140.5 35.5v535z" />
<glyph unicode="H" horiz-adv-x="1114" d="M272 0h-133v1475h133v-660h570v660h133v-1475h-133v702h-570v-702z" />
<glyph unicode="I" horiz-adv-x="418" d="M141 0v1475h133v-1475h-133z" />
<glyph unicode="J" horiz-adv-x="915" d="M194 424q0 -9 -0.5 -20.5t-0.5 -32.5q0 -143 54.5 -214t164.5 -71q129 0 178 79.5t49 340.5v969h129v-969q0 -176 -12 -254t-41 -127q-45 -75 -120.5 -112.5t-184.5 -37.5q-172 0 -258 100.5t-86 299.5q0 8 1 24.5t1 24.5h126z" />
<glyph unicode="K" horiz-adv-x="1028" d="M166 0v1475h131v-668l541 666h153l-559 -687l559 -786h-155l-539 752v-752h-131z" />
<glyph unicode="L" horiz-adv-x="803" d="M160 0v1475h135v-1360h491v-115h-626z" />
<glyph unicode="M" horiz-adv-x="1559" d="M131 0v1475h215l354 -1059q16 -47 37 -127.5t43 -177.5l56 223q15 61 22 82l354 1059h215v-1475h-127v1108q0 26 2.5 104.5t6.5 177.5l-459 -1390h-148l-458 1396q5 -114 7.5 -180t2.5 -108v-1108h-123z" />
<glyph unicode="N" horiz-adv-x="1214" d="M139 0v1475h207l623 -1391q-13 80 -19 161t-6 163v1067h129v-1475h-199l-624 1380q10 -64 15 -137.5t5 -157.5v-1085h-131z" />
<glyph unicode="O" horiz-adv-x="1133" d="M113 737q0 303 26.5 429.5t89.5 201.5q56 65 140 97t196 32q111 0 196.5 -32.5t139.5 -96.5q64 -76 90.5 -205t26.5 -426q0 -298 -26.5 -427t-90.5 -204q-54 -62 -142 -96.5t-194 -34.5t-193.5 34.5t-142.5 96.5q-64 75 -90 204t-26 427zM250 737q0 -385 69 -516 t246 -131t245.5 130t68.5 517q0 389 -68.5 519t-245.5 130t-246 -131.5t-69 -517.5z" />
<glyph unicode="P" horiz-adv-x="915" d="M272 0h-133v1475h348q208 0 299 -92t91 -302q0 -217 -95.5 -308t-328.5 -91h-181v-682zM272 1372v-588h191q164 0 226.5 65t62.5 232q0 162 -63 226.5t-226 64.5h-191z" />
<glyph unicode="Q" horiz-adv-x="1133" d="M828 105q67 5 138.5 7.5t147.5 2.5v-115h-385q-26 0 -80 -6t-82 -6q-78 0 -145.5 18.5t-124.5 54.5q-102 66 -143 202.5t-41 481.5q0 300 26 425t90 200q56 65 138 96t198 31q115 0 198 -31.5t138 -95.5q63 -74 90 -198t27 -373q0 -387 -42 -517.5t-148 -176.5zM250 743 q0 -235 19 -353.5t63 -178.5q37 -53 98 -82t135 -29t135.5 29.5t98.5 81.5q43 60 61.5 179t18.5 353q0 386 -68 512.5t-246 126.5q-179 0 -247 -126t-68 -513z" />
<glyph unicode="R" horiz-adv-x="1026" d="M541 711h-273v-711h-129v1475h293q280 0 372.5 -79t92.5 -294q0 -151 -50.5 -230t-162.5 -104q112 -21 155.5 -84.5t43.5 -220.5v-94q0 -83 6.5 -175t19.5 -194h-143q-14 154 -16.5 327.5t-4.5 193.5q-11 103 -58 146.5t-146 43.5zM268 815h156q190 0 265 66.5t75 234.5 q0 142 -64.5 196t-248.5 54h-183v-551z" />
<glyph unicode="S" horiz-adv-x="1028" d="M113 416l137 -1q-1 -7 -1.5 -17.5t-0.5 -30.5q0 -139 67 -209t199 -70q122 0 195 72t73 192q0 86 -47.5 151t-238.5 187l-51 33q-146 92 -207 145q-55 49 -84 120t-29 157q0 163 108.5 258.5t294.5 95.5q185 0 283 -96.5t98 -278.5v-30h-135v14q0 141 -62.5 209.5 t-191.5 68.5q-118 0 -189 -63.5t-71 -169.5q0 -92 58 -165t284 -214q198 -122 257 -205t59 -200q0 -187 -108 -290.5t-304 -103.5q-195 0 -295 99t-100 291q0 21 0.5 32t1.5 19z" />
<glyph unicode="T" horiz-adv-x="868" d="M369 0v1360h-359v115h846v-115h-360v-1360h-127z" />
<glyph unicode="U" horiz-adv-x="1139" d="M137 1475h133v-967q0 -133 11.5 -198.5t37.5 -104.5q40 -58 104.5 -89.5t145.5 -31.5t146 31.5t104 89.5q27 39 38 104.5t11 198.5v967h131v-967q0 -289 -99.5 -411t-330.5 -122q-230 0 -331 123.5t-101 409.5v967z" />
<glyph unicode="V" horiz-adv-x="1010" d="M416 0l-406 1475h144l256 -959q14 -51 38 -154l52 -241q25 114 97 374l7 25l264 955h129l-415 -1475h-166z" />
<glyph unicode="W" horiz-adv-x="1688" d="M395 0l-370 1475h131l276 -1129q20 -76 31.5 -132t19.5 -114q11 73 22 134l21 112l242 1129h197l256 -1127q1 -7 5 -23q30 -125 44 -225q7 52 18 109.5t29 136.5l250 1129h125l-349 -1475h-167l-263 1137l-6 27q-34 141 -43 216q-17 -103 -42 -230l-3 -14l-248 -1136 h-176z" />
<glyph unicode="X" horiz-adv-x="1010" d="M10 0l396 768l-365 707h154l303 -617l321 617h142l-377 -709l415 -766h-155l-350 672l-336 -672h-148z" />
<glyph unicode="Y" horiz-adv-x="952" d="M412 0v602l-422 873h153l338 -734l344 734h138l-418 -873v-602h-133z" />
<glyph unicode="Z" horiz-adv-x="891" d="M41 0v127l496 905q10 21 106 183l86 145h-637v115h760v-146l-668 -1210h668v-119h-811z" />
<glyph unicode="[" horiz-adv-x="569" d="M498 -301h-289v1776h289v-86h-170v-1604h170v-86z" />
<glyph unicode="\" horiz-adv-x="569" d="M541 -190l-592 1683h102l594 -1683h-104z" />
<glyph unicode="]" horiz-adv-x="569" d="M72 -301v86h170v1604h-170v86h286v-1776h-286z" />
<glyph unicode="^" horiz-adv-x="2048" d="M1081 1458l541 -557h-125l-473 469l-475 -469h-125l539 557h118z" />
<glyph unicode="_" horiz-adv-x="1024" d="M1024 -403v-80h-1024v80h1024z" />
<glyph unicode="`" horiz-adv-x="1024" d="M545 1163l-269 348h152l209 -348h-92z" />
<glyph unicode="a" horiz-adv-x="874" d="M622 541q-257 -2 -349.5 -55t-92.5 -189q0 -97 47.5 -152t130.5 -55q130 0 197.5 85.5t67.5 250.5zM647 0l-12 141q-59 -74 -135 -111.5t-166 -37.5q-125 0 -200 83.5t-75 221.5q0 163 111.5 244.5t343.5 89.5l109 4v113q0 111 -50.5 158.5t-164.5 47.5q-94 0 -140.5 -43 t-48.5 -130l-125 -1q0 135 85 204t251 69q165 0 242.5 -72.5t77.5 -226.5v-566q0 -43 3 -90.5t9 -97.5h-115z" />
<glyph unicode="b" horiz-adv-x="915" d="M229 0h-118q5 40 7.5 84.5t2.5 99.5v1291h119v-570q49 72 112 107t142 35q174 0 251.5 -124t77.5 -411q0 -284 -78 -410.5t-251 -126.5q-83 0 -145 35t-109 109zM479 82q117 0 168 93t51 308q0 269 -49.5 364t-175.5 95q-121 0 -174 -104.5t-53 -352.5q0 -206 57 -304.5 t176 -98.5z" />
<glyph unicode="c" horiz-adv-x="858" d="M768 305q-6 -163 -91 -248.5t-243 -85.5q-185 0 -265.5 123t-80.5 410q0 295 78.5 422t257.5 127q164 0 250 -79.5t94 -238.5l-123 1q-5 108 -57 165t-146 57q-124 0 -173.5 -93t-49.5 -347q0 -257 48.5 -348.5t170.5 -91.5q104 0 156 56.5t56 170.5h118z" />
<glyph unicode="d" horiz-adv-x="915" d="M684 0l-8 119q-48 -74 -109.5 -109t-144.5 -35q-174 0 -252 126.5t-78 410.5q0 287 77.5 411t252.5 124q79 0 141.5 -35t112.5 -107v570h119v-1291q0 -76 1.5 -114t6.5 -70h-119zM217 483q0 -215 51.5 -308t167.5 -93q120 0 177 98.5t57 304.5q0 248 -53 352.5 t-175 104.5q-125 0 -175 -95t-50 -364z" />
<glyph unicode="e" horiz-adv-x="905" d="M221 598h465v45q0 159 -54.5 232t-172.5 73q-121 0 -179.5 -77.5t-58.5 -239.5v-33zM811 311q-9 -169 -95.5 -252.5t-254.5 -83.5q-206 0 -287.5 120t-81.5 448q0 175 20.5 258.5t69.5 140.5q46 53 118 82t161 29q168 0 259 -103t91 -293v-163h-592v-88 q0 -169 56.5 -247.5t177.5 -78.5q112 0 168.5 58t56.5 173h133z" />
<glyph unicode="f" horiz-adv-x="502" d="M168 0v924h-166v104h166v217q0 89 15.5 131.5t52.5 69.5q36 27 96.5 39t165.5 12v-106h-29q-105 0 -140.5 -34.5t-35.5 -168.5v-160h207v-104h-207v-924h-125z" />
<glyph unicode="g" horiz-adv-x="915" d="M670 545q0 206 -55.5 304.5t-172.5 98.5q-122 0 -173.5 -90t-51.5 -313q0 -235 49.5 -327.5t169.5 -92.5q124 0 179 97t55 323zM803 1044q-5 -32 -6.5 -70t-1.5 -114v-831q0 -140 -13 -198.5t-43 -98.5q-44 -58 -122 -89.5t-179 -31.5q-153 0 -233.5 76.5t-85.5 226.5 h135q0 -105 46.5 -153t148.5 -48q117 0 168 62.5t51 208.5v178q-39 -70 -99.5 -103.5t-146.5 -33.5q-174 0 -252 123t-78 401q0 262 79.5 383t250.5 121q82 0 144 -34.5t110 -107.5l8 133h119z" />
<glyph unicode="h" horiz-adv-x="895" d="M242 0h-123v1475h123v-568q47 72 115.5 109t154.5 37q124 0 195 -76.5t71 -210.5v-766h-125v717q0 118 -42.5 173.5t-133.5 55.5q-114 0 -174.5 -89.5t-60.5 -258.5v-598z" />
<glyph unicode="i" horiz-adv-x="371" d="M113 1317v158h145v-158h-145zM119 0v1028h133v-1028h-133z" />
<glyph unicode="j" horiz-adv-x="379" d="M260 -113q0 -189 -50.5 -234.5t-197.5 -45.5h-39v112h45q65 0 87 21.5t22 112.5v34v1141h133v-1141zM268 1475v-158h-147v158h147z" />
<glyph unicode="k" horiz-adv-x="784" d="M121 0v1475h123v-881l358 434h146l-367 -444l389 -584h-149l-377 561v-561h-123z" />
<glyph unicode="l" horiz-adv-x="371" d="M121 0v1475h127v-1475h-127z" />
<glyph unicode="m" horiz-adv-x="1434" d="M242 907q47 72 115.5 109t154.5 37q94 0 158.5 -44t95.5 -128q42 82 116 127t167 45q124 0 196 -77t72 -210v-766h-125v717q0 118 -42.5 173.5t-133.5 55.5q-115 0 -175.5 -89.5t-60.5 -258.5v-598h-127v717q0 118 -42.5 173.5t-133.5 55.5q-114 0 -174.5 -89.5 t-60.5 -258.5v-598h-123v885q0 23 -2.5 56t-7.5 87h122z" />
<glyph unicode="n" horiz-adv-x="895" d="M242 0h-123v885q0 23 -2.5 56t-7.5 87h122l11 -121q47 72 115.5 109t154.5 37q124 0 195 -76.5t71 -210.5v-766h-123v717q0 117 -43 173t-135 56q-114 0 -174.5 -89.5t-60.5 -258.5v-598z" />
<glyph unicode="o" horiz-adv-x="905" d="M92 514q0 296 83 417.5t278 121.5q194 0 277 -121.5t83 -417.5q0 -299 -82 -419t-276 -120q-195 0 -279 123t-84 416zM453 80q125 0 179 92.5t54 314.5q0 267 -52 364t-181 97q-128 0 -181 -95.5t-53 -338.5q0 -246 52.5 -340t181.5 -94z" />
<glyph unicode="p" horiz-adv-x="915" d="M698 543q0 215 -51 308t-168 93q-119 0 -176 -98.5t-57 -304.5q0 -248 53 -352.5t174 -104.5q126 0 175.5 95.5t49.5 363.5zM229 1028l11 -121q47 74 109 109t145 35q173 0 251 -126.5t78 -410.5q0 -287 -77.5 -410.5t-251.5 -123.5q-79 0 -142 34.5t-112 106.5v-510 h-119v1231q0 51 -2.5 98t-7.5 88h118z" />
<glyph unicode="q" horiz-adv-x="915" d="M436 946q-116 0 -167.5 -93t-51.5 -308q0 -268 50 -363.5t175 -95.5q122 0 175 105t53 354q0 206 -57 303.5t-177 97.5zM684 1028h119q-5 -32 -6.5 -70t-1.5 -114v-1233h-119v512q-49 -71 -111.5 -105t-142.5 -34q-175 0 -252.5 123t-77.5 409q0 284 78 410.5t252 126.5 q83 0 144.5 -35t109.5 -109z" />
<glyph unicode="r" horiz-adv-x="551" d="M121 0v895q0 28 -4 64t-13 83h129l13 -147q49 80 113 119t147 39h24v-107h-26q-120 0 -188 -76.5t-68 -212.5v-657h-127z" />
<glyph unicode="s" horiz-adv-x="811" d="M94 305h129v-24q0 -103 45 -157t129 -54q95 0 148 50.5t53 141.5q0 53 -31.5 94.5t-101.5 79.5l-170 90q-92 50 -134 113.5t-42 151.5q0 124 76.5 193t216.5 69q145 0 214.5 -68.5t69.5 -210.5v-18h-116v14q0 95 -40.5 136.5t-131.5 41.5q-80 0 -124 -38t-44 -107 q0 -56 30.5 -96t106.5 -80l160 -86q94 -51 137 -116.5t43 -160.5q0 -139 -82.5 -214t-235.5 -75q-152 0 -228.5 75.5t-76.5 225.5v29z" />
<glyph unicode="t" horiz-adv-x="578" d="M524 6q-19 -3 -45.5 -4.5t-87.5 -1.5q-118 0 -160.5 48.5t-42.5 211.5v670h-161v98h161v219l123 60v-279h213v-98h-213v-658q0 -106 26 -136t97 -30q22 0 45 3.5t45 9.5v-113z" />
<glyph unicode="u" horiz-adv-x="895" d="M653 1028h123v-885q0 -19 2.5 -52.5t7.5 -90.5h-124l-9 121q-47 -72 -115.5 -109t-154.5 -37q-125 0 -195.5 76.5t-70.5 210.5v766h123v-717q0 -117 43 -172t135 -55q114 0 174.5 88.5t60.5 257.5v598z" />
<glyph unicode="v" horiz-adv-x="809" d="M338 0l-313 1028h141l211 -747q11 -41 19.5 -81.5t13.5 -80.5q4 28 11.5 61t24.5 99l216 749h120l-299 -1028h-145z" />
<glyph unicode="w" horiz-adv-x="1384" d="M313 0l-290 1028h135l202 -771q3 -11 14 -69l19 -95q5 51 25 137l6 24l184 774h156l207 -776q9 -36 17.5 -75.5t15.5 -83.5q8 60 30 153v2l197 780h131l-287 -1028h-157l-193 731q-10 36 -19 82t-20 108q-9 -52 -18.5 -99t-20.5 -91l-180 -731h-154z" />
<glyph unicode="x" horiz-adv-x="811" d="M162 0h-137l301 555l-248 473h137l164 -326q6 -11 16.5 -37t14.5 -34q5 15 12 30t22 43l181 324h125l-265 -469l301 -559h-145l-203 393l-16 37l-17 38l-14 -31q-16 -36 -20 -43z" />
<glyph unicode="y" horiz-adv-x="801" d="M231 -389l121 401l-327 1016h127l264 -856l235 856h123l-418 -1417h-125z" />
<glyph unicode="z" horiz-adv-x="696" d="M70 0v109l419 815h-401v104h541v-104l-420 -815h420v-109h-559z" />
<glyph unicode="{" horiz-adv-x="1024" d="M848 1389h-37q-135 0 -182 -51.5t-47 -213.5v-241q0 -175 -43 -248t-152 -105q109 -32 152 -104t43 -248v-241q0 -162 46.5 -212.5t180.5 -50.5h39v-88h-43q-189 0 -257.5 74.5t-68.5 300.5v240q0 158 -58 222t-200 64q-7 0 -21.5 -1t-23.5 -1v90q10 -1 20.5 -1.5 t28.5 -0.5q139 0 196.5 64.5t57.5 222.5v240q0 227 68.5 302t257.5 75h43v-88z" />
<glyph unicode="|" horiz-adv-x="1024" d="M557 1565v-2048h-90v2048h90z" />
<glyph unicode="}" horiz-adv-x="1024" d="M545 1100v-240q0 -158 58 -222.5t200 -64.5q7 0 21.5 1t23.5 1v-90q-9 0 -23.5 1t-21.5 1q-142 0 -200 -64t-58 -222v-240q0 -226 -68.5 -300.5t-257.5 -74.5h-43v88h39q134 0 180.5 50.5t46.5 212.5v241q0 174 43.5 247t153.5 105q-110 32 -153.5 105t-43.5 248v241 q0 162 -47 213.5t-182 51.5h-37v88h43q189 0 257.5 -75t68.5 -302z" />
<glyph unicode="~" horiz-adv-x="1706" d="M1530 647q-106 -74 -202 -110.5t-185 -36.5q-99 0 -266 61q-16 6 -22 8q-12 4 -33 12q-167 60 -257 60q-83 0 -175 -37.5t-212 -122.5v92q105 74 201 110t186 36q100 0 271 -61q12 -5 19 -7l27 -10q168 -61 261 -61q83 0 175 37.5t212 121.5v-92z" />
<glyph d="M719 430h137v-16q0 -199 -102.5 -316.5t-272.5 -117.5q-187 0 -288 143t-101 412v30h-127l35 90h86v172h-129l33 91h102q2 290 105 433.5t309 143.5q168 0 253 -101.5t85 -301.5v-15h-133v8q0 149 -56 224t-166 75q-128 0 -196 -112.5t-68 -327.5v-26h420l-35 -91h-389 q0 -20 -1 -54.5t-1 -47.5q0 -2 1 -10q1 -31 1 -60h301l-33 -90h-264v-30q0 -219 63.5 -328t190.5 -109q108 0 174 82t66 217v33z" />
<glyph unicode="&#x20ac;" d="M719 430h137v-16q0 -199 -102.5 -316.5t-272.5 -117.5q-187 0 -288 143t-101 412v30h-127l35 90h86v172h-129l33 91h102q2 290 105 433.5t309 143.5q168 0 253 -101.5t85 -301.5v-15h-133v8q0 149 -56 224t-166 75q-128 0 -196 -112.5t-68 -327.5v-26h420l-35 -91h-389 q0 -20 -1 -54.5t-1 -47.5q0 -2 1 -10q1 -31 1 -60h301l-33 -90h-264v-30q0 -219 63.5 -328t190.5 -109q108 0 174 82t66 217v33z" />
<glyph unicode="&#xa0;" />
<glyph unicode="&#xa1;" horiz-adv-x="569" d="M342 1126l18 -1126h-151l29 1126h104zM365 1475v-166h-154v166h154z" />
<glyph unicode="&#xa2;" d="M635 1022q82 -34 125.5 -105.5t48.5 -180.5h-123q-3 75 -21.5 118t-56.5 64l-200 -834q18 -5 34 -7.5t29 -2.5q105 0 160.5 59t59.5 172h118q-5 -157 -89 -245.5t-228 -88.5q-19 0 -45.5 2.5t-60.5 7.5l-42 -169h-88l41 184q-84 52 -126 164t-42 284q0 199 17 307t55 167 q43 66 111.5 99.5t160.5 33.5q23 0 42.5 -2t37.5 -7l39 179h90zM332 119l196 829q-18 3 -34.5 4.5t-32.5 1.5q-112 0 -157.5 -101.5t-45.5 -371.5q0 -149 19 -241.5t55 -120.5z" />
<glyph unicode="&#xa3;" d="M74 0v115h151v592h-166v108h166v279q0 176 84.5 262t257.5 86q156 0 235 -79t79 -235v-34h-133v20q0 108 -46.5 163.5t-136.5 55.5q-111 0 -158 -65t-47 -232v-221h297v-108h-297v-592h492v-115h-778z" />
<glyph unicode="&#xa4;" d="M719 430h137v-16q0 -199 -102.5 -316.5t-272.5 -117.5q-187 0 -288 143t-101 412v30h-127l35 90h86v172h-129l33 91h102q2 290 105 433.5t309 143.5q168 0 253 -101.5t85 -301.5v-15h-133v8q0 149 -56 224t-166 75q-128 0 -196 -112.5t-68 -327.5v-26h420l-35 -91h-389 q0 -20 -1 -54.5t-1 -47.5q0 -2 1 -10q1 -31 1 -60h301l-33 -90h-264v-30q0 -219 63.5 -328t190.5 -109q108 0 174 82t66 217v33z" />
<glyph unicode="&#xa5;" horiz-adv-x="952" d="M414 0v584h-373v82h332l-101 208h-231v80h190l-225 471h148l325 -708l334 708h133l-225 -471h190v-80h-231l-102 -208h333v-82h-372v-584h-125z" />
<glyph unicode="&#xa6;" horiz-adv-x="1024" d="M557 408v-758h-90v758h90zM557 1432v-758h-90v758h90z" />
<glyph unicode="&#xa7;" d="M170 14v121q85 -25 154 -37t125 -12q102 0 159.5 42.5t57.5 119.5q0 92 -211 209l-11 6q-12 7 -37 20q-260 144 -260 256q0 67 54 125.5t174 120.5q-110 57 -157.5 118t-47.5 144q0 116 87.5 179t248.5 63q54 0 108.5 -8t106.5 -23v-117q-74 21 -133.5 31t-108.5 10 q-89 0 -138.5 -35t-49.5 -98q0 -97 235 -210l43 -21q122 -59 166.5 -109t44.5 -118q0 -71 -52 -134.5t-155 -119.5q118 -62 169 -126.5t51 -152.5q0 -135 -91.5 -209t-259.5 -74q-59 0 -125.5 9.5t-146.5 29.5zM485 584q95 59 130.5 99t35.5 83q0 49 -44 89.5t-140 80.5 q-107 -63 -146.5 -102.5t-39.5 -79.5q0 -43 47 -82.5t157 -87.5z" />
<glyph unicode="&#xa8;" horiz-adv-x="1024" d="M602 1241v162h141v-162h-141zM281 1241v162h141v-162h-141z" />
<glyph unicode="&#xa9;" horiz-adv-x="1706" d="M1081 918q-20 81 -79.5 126.5t-147.5 45.5q-126 0 -196 -97.5t-70 -273.5q0 -169 71.5 -267t194.5 -98q91 0 156 52.5t84 140.5h102q-11 -123 -108 -201t-240 -78q-173 0 -275 123.5t-102 333.5q0 205 107 328t282 123q132 0 222.5 -72t103.5 -186h-105zM1511 721 q0 133 -49 252.5t-141 212.5q-95 95 -215 144.5t-254 49.5q-133 0 -251.5 -49t-209.5 -141q-95 -97 -145.5 -218t-50.5 -251t50 -249.5t144 -213.5t213.5 -144.5t249.5 -50.5t251.5 51t217.5 146q93 92 141.5 209.5t48.5 251.5zM852 1452q149 0 282.5 -55t237.5 -160 q103 -102 157 -235t54 -281q0 -150 -53.5 -280t-157.5 -232q-107 -106 -241.5 -162.5t-278.5 -56.5q-145 0 -277 55.5t-237 161.5q-105 104 -160 236t-55 278q0 145 56 279t161 241q101 103 232 157t280 54z" />
<glyph unicode="&#xaa;" horiz-adv-x="655" d="M467 1132q-194 -1 -263 -38t-69 -131q0 -69 35.5 -107.5t97.5 -38.5q99 0 149 59.5t50 176.5v79zM485 754l-8 98q-45 -52 -102.5 -78t-124.5 -26q-92 0 -148.5 59t-56.5 156q0 112 83.5 169.5t256.5 63.5l82 2v80q0 77 -37.5 110t-124.5 33q-70 0 -104.5 -29.5 t-36.5 -90.5l-92 -1q0 95 63.5 143t188.5 48q123 0 181 -50.5t58 -158.5v-397q0 -34 2 -67t6 -64h-86z" />
<glyph unicode="&#xab;" horiz-adv-x="758" d="M682 121h-119l-184 395l184 393h119l-156 -393zM379 121h-119l-184 395l184 393h119l-156 -393z" />
<glyph unicode="&#xac;" horiz-adv-x="1706" d="M1452 856v-502h-78v420h-1120v82h1198z" />
<glyph unicode="&#xad;" horiz-adv-x="569" d="M74 457v114h422v-114h-422z" />
<glyph unicode="&#xae;" horiz-adv-x="1706" d="M852 1077h-168v-313h168q145 0 199.5 36t54.5 126q0 78 -61.5 114.5t-192.5 36.5zM874 1155q180 0 264.5 -56.5t84.5 -176.5q0 -89 -55.5 -149t-147.5 -71l190 -393h-131l-182 377h-213v-377h-115v846h305zM1511 721q0 133 -49 252.5t-141 212.5q-95 95 -215 144.5 t-254 49.5q-133 0 -251.5 -49t-209.5 -141q-95 -97 -145.5 -218t-50.5 -251t50 -249.5t144 -213.5t213.5 -144.5t249.5 -50.5t251.5 51t217.5 146q93 92 141.5 209.5t48.5 251.5zM852 1452q149 0 282.5 -55t237.5 -160q103 -102 157 -235t54 -281q0 -150 -53.5 -280 t-157.5 -232q-107 -106 -241.5 -162.5t-278.5 -56.5q-145 0 -277 55.5t-237 161.5q-105 104 -160 236t-55 278q0 145 56 279t161 241q101 103 232 157t280 54z" />
<glyph unicode="&#xaf;" horiz-adv-x="1024" d="M274 1264v116h476v-116h-476z" />
<glyph unicode="&#xb0;" horiz-adv-x="674" d="M551 1176q0 87 -63 150t-150 63q-89 0 -151 -62t-62 -151t62.5 -151t150.5 -62t150.5 62t62.5 151zM338 1450q112 0 192 -80.5t80 -193.5q0 -114 -80 -193.5t-194 -79.5q-115 0 -194 79t-79 194q0 114 80.5 194t194.5 80z" />
<glyph unicode="&#xb1;" horiz-adv-x="1706" d="M1452 141v-82h-1198v82h1198zM893 1161v-354h559v-80h-559v-352h-80v352h-559v80h559v354h80z" />
<glyph unicode="&#xb2;" horiz-adv-x="621" d="M549 571h-477v76l303 412q42 59 64 109t22 87q0 56 -38 87.5t-104 31.5q-76 0 -115.5 -39.5t-39.5 -115.5h-88v8q0 103 63 159t180 56q112 0 170 -47.5t58 -139.5q0 -56 -26 -116t-89 -142l-262 -356h379v-70z" />
<glyph unicode="&#xb3;" horiz-adv-x="621" d="M51 784h86v-6q0 -76 38.5 -114.5t113.5 -38.5q78 0 114.5 42.5t36.5 135.5q0 101 -38 140.5t-134 39.5q-15 0 -22 -0.5t-13 -1.5v68q112 0 156.5 37t44.5 131q0 85 -34.5 123t-110.5 38q-68 0 -105 -36t-37 -103v-16h-84v16q0 101 57 152t169 51q124 0 177.5 -51 t53.5 -170q0 -89 -34.5 -138t-110.5 -67q84 -8 119.5 -57t35.5 -158q0 -121 -62 -183.5t-181 -62.5q-110 0 -174 54t-64 149q0 11 0.5 16.5t1.5 9.5z" />
<glyph unicode="&#xb4;" horiz-adv-x="1024" d="M479 1163h-92l209 348h152z" />
<glyph unicode="&#xb5;" horiz-adv-x="1094" d="M326 1063l-123 -590q-9 -43 -13 -77t-4 -64q0 -126 60 -192t174 -66q127 0 219.5 109t136.5 313l125 567h121l-166 -786q-2 -9 -5 -24q-20 -92 -20 -112q0 -31 17.5 -47t50.5 -16q9 0 18.5 0.5t20.5 1.5l-18 -96q-3 -1 -8 -2q-49 -11 -68 -11q-68 0 -100.5 31.5 t-32.5 95.5q0 7 0.5 16t3.5 29q-43 -83 -123.5 -127.5t-188.5 -44.5q-97 0 -169.5 45.5t-104.5 126.5l-119 -567h-121l316 1487h121z" />
<glyph unicode="&#xb6;" horiz-adv-x="1024" d="M932 1415h-129v-1415h-70v1415h-192v-1415h-70v782q-175 8 -278 102.5t-103 245.5q0 157 108.5 253t286.5 96h447v-64z" />
<glyph unicode="&#xb7;" horiz-adv-x="469" d="M137 713q0 38 27 65t65 27q40 0 65 -26t25 -66q0 -41 -25 -66.5t-65 -25.5q-38 0 -65 26.5t-27 65.5z" />
<glyph unicode="&#xb8;" horiz-adv-x="1024" d="M272 -418v76q77 -18 136 -26.5t102 -8.5q64 0 96.5 22.5t32.5 67.5q0 55 -34.5 80t-108.5 25q-19 0 -28.5 -0.5t-18.5 -1.5v184h63v-111h14q110 0 168 -44t58 -128q0 -85 -59 -130.5t-169 -45.5q-54 0 -114.5 10t-137.5 31z" />
<glyph unicode="&#xb9;" horiz-adv-x="621" d="M381 571h-84v752q-21 -26 -59.5 -54t-100.5 -63v86q47 24 89 58t79 77h76v-856z" />
<glyph unicode="&#xba;" horiz-adv-x="680" d="M70 1114q0 207 62 292t208 85t208 -85t62 -292q0 -209 -61 -293t-207 -84q-147 0 -209.5 85.5t-62.5 291.5zM340 809q93 0 133.5 65.5t40.5 221.5q0 185 -39 253t-135 68t-136 -66.5t-40 -236.5q0 -171 40 -238t136 -67z" />
<glyph unicode="&#xbb;" horiz-adv-x="758" d="M76 121l155 395l-155 393h119l184 -393l-184 -395h-119zM379 121l156 395l-156 393h119l184 -393l-184 -395h-119z" />
<glyph unicode="&#xbc;" horiz-adv-x="1528" d="M1296 0v205h-315v84l276 510h121v-535h101v-59h-101v-205h-82zM1296 262v338q0 38 1.5 76.5t4.5 76.5l-27 -56l-26 -54l-209 -381h256zM209 -25l991 1475h103l-994 -1475h-100zM362 627h-79v702q-19 -24 -53.5 -49t-100.5 -61v81q46 24 86.5 55t75.5 70h71v-798z" />
<glyph unicode="&#xbd;" horiz-adv-x="1528" d="M1458 0h-457v72l291 383q41 55 61.5 101t20.5 81q0 52 -36 82.5t-99 30.5q-73 0 -111 -37.5t-38 -108.5h-84v8q0 97 60.5 149t172.5 52q106 0 161.5 -45t55.5 -131q0 -50 -24 -104.5t-84 -135.5l-252 -331h362v-66zM209 -25l991 1475h103l-994 -1475h-100zM362 627h-79 v702q-19 -24 -53.5 -49t-100.5 -61v81q46 24 86.5 55t75.5 70h71v-798z" />
<glyph unicode="&#xbe;" horiz-adv-x="1526" d="M1296 0v205h-315v84l276 510h121v-535h101v-59h-101v-205h-82zM1296 262v338q0 38 1.5 76.5t4.5 76.5l-27 -56l-26 -54l-209 -381h256zM209 -25l991 1475h103l-994 -1475h-100zM49 825h82v-6q0 -70 36.5 -105.5t108.5 -35.5q76 0 110 38.5t34 125.5q0 95 -36.5 132.5 t-127.5 37.5q-14 0 -21 -0.5t-14 -1.5v63q108 0 150.5 34.5t42.5 121.5q0 80 -33 114.5t-107 34.5q-63 0 -98 -33t-35 -94v-16h-80v16q0 93 54.5 140t160.5 47q119 0 170.5 -47.5t51.5 -157.5q0 -83 -34 -129t-105 -62q78 -7 112.5 -53t34.5 -147q0 -114 -58 -172t-174 -58 q-105 0 -166 50.5t-61 138.5q0 9 0.5 14.5t1.5 9.5z" />
<glyph unicode="&#xbf;" horiz-adv-x="758" d="M432 1120v-170q0 -57 -1 -80.5t-3 -39.5q-7 -50 -83 -171l-22 -35l-18 -28q-92 -136 -92 -297q0 -108 42 -161.5t126 -53.5q78 0 114.5 48t36.5 149v34h136q0 -7 1 -21t1 -22q0 -148 -72 -222.5t-215 -74.5q-149 0 -226 79t-77 233q0 98 24.5 185t75.5 169q18 29 51 76 q47 70 58 96q13 33 18.5 69.5t5.5 96.5v25v116h119zM457 1475v-166h-154v166h154z" />
<glyph unicode="&#xc0;" horiz-adv-x="1141" d="M315 508h500l-246 831zM162 0h-135l473 1475h149l463 -1475h-145l-121 393h-567zM604 1609l-269 348h152l209 -348h-92z" />
<glyph unicode="&#xc1;" horiz-adv-x="1141" d="M315 508h500l-246 831zM162 0h-135l473 1475h149l463 -1475h-145l-121 393h-567zM538 1609h-92l209 348h152z" />
<glyph unicode="&#xc2;" horiz-adv-x="1141" d="M315 508h500l-246 831zM162 0h-135l473 1475h149l463 -1475h-145l-121 393h-567zM295 1609l200 348h152l200 -348h-92l-184 262l-184 -262h-92z" />
<glyph unicode="&#xc3;" horiz-adv-x="1141" d="M315 508h500l-246 831zM162 0h-135l473 1475h149l463 -1475h-145l-121 393h-567zM835 1871q-24 -89 -68 -134.5t-106 -45.5q-26 0 -38.5 2.5t-22.5 7.5l-62 27q-15 6 -28.5 9t-26.5 3q-33 0 -57 -18t-39 -55h-80q24 89 67 134.5t105 45.5q26 0 38.5 -2.5t22.5 -7.5 l64 -27q16 -7 28 -9.5t25 -2.5q33 0 57 18t39 55h82z" />
<glyph unicode="&#xc4;" horiz-adv-x="1141" d="M315 508h500l-246 831zM162 0h-135l473 1475h149l463 -1475h-145l-121 393h-567zM661 1687v162h141v-162h-141zM340 1687v162h141v-162h-141z" />
<glyph unicode="&#xc5;" horiz-adv-x="1141" d="M315 508h500l-246 831zM162 0h-135l473 1468h149l463 -1468h-145l-121 393h-567zM444 1753q0 -57 39.5 -96t96.5 -39t97 39.5t40 95.5q0 57 -40.5 97t-96.5 40q-57 0 -96.5 -40t-39.5 -97zM362 1753q0 92 63.5 155.5t154.5 63.5q92 0 155.5 -63.5t63.5 -155.5 t-63.5 -154.5t-155.5 -62.5q-91 0 -154.5 63t-63.5 154z" />
<glyph unicode="&#xc6;" horiz-adv-x="1645" d="M862 512l-76 874l-421 -874h497zM1561 0h-652l-37 397h-563l-190 -397h-146l711 1475h877v-115h-650l52 -545h567v-108h-557l59 -584h529v-123z" />
<glyph unicode="&#xc7;" horiz-adv-x="1028" d="M795 430h141v-6q0 -214 -106.5 -331.5t-301.5 -117.5q-110 0 -195 44t-140 128q-44 67 -62 169.5t-18 359.5v57q0 222 10 326t33 180q37 121 138 189.5t243 68.5q204 0 295.5 -97.5t91.5 -314.5v-8h-137q-2 164 -60 238t-186 74q-160 0 -224.5 -124t-64.5 -456 q0 -178 6.5 -300t20.5 -196q20 -105 86 -163t165 -58q124 0 194.5 81t70.5 224v33zM274 -418v76q77 -18 136 -26.5t102 -8.5q64 0 96.5 22.5t32.5 67.5q0 55 -34.5 80t-108.5 25q-19 0 -28.5 -0.5t-18.5 -1.5v184h63v-111h14q110 0 168 -44t58 -128q0 -85 -59 -130.5 t-169 -45.5q-54 0 -114.5 10t-137.5 31z" />
<glyph unicode="&#xc8;" horiz-adv-x="883" d="M801 0h-662v1475h662v-115h-529v-545h498v-108h-498v-584h529v-123zM514 1609l-269 348h152l209 -348h-92z" />
<glyph unicode="&#xc9;" horiz-adv-x="883" d="M801 0h-662v1475h662v-115h-529v-545h498v-108h-498v-584h529v-123zM448 1609h-92l209 348h152z" />
<glyph unicode="&#xca;" horiz-adv-x="883" d="M801 0h-662v1475h662v-115h-529v-545h498v-108h-498v-584h529v-123zM205 1609l200 348h152l200 -348h-92l-184 262l-184 -262h-92z" />
<glyph unicode="&#xcb;" horiz-adv-x="883" d="M801 0h-662v1475h662v-115h-529v-545h498v-108h-498v-584h529v-123zM571 1687v162h141v-162h-141zM250 1687v162h141v-162h-141z" />
<glyph unicode="&#xcc;" horiz-adv-x="418" d="M141 0v1475h133v-1475h-133zM242 1609l-269 348h152l209 -348h-92z" />
<glyph unicode="&#xcd;" horiz-adv-x="418" d="M141 0v1475h133v-1475h-133zM176 1609h-92l209 348h152z" />
<glyph unicode="&#xce;" horiz-adv-x="418" d="M141 0v1475h133v-1475h-133zM-67 1609l200 348h152l200 -348h-92l-184 262l-184 -262h-92z" />
<glyph unicode="&#xcf;" horiz-adv-x="418" d="M141 0v1475h133v-1475h-133zM299 1687v162h141v-162h-141zM-22 1687v162h141v-162h-141z" />
<glyph unicode="&#xd0;" horiz-adv-x="1108" d="M283 113h166q120 0 189 16.5t110 54.5q58 55 82 168.5t24 380.5q0 218 -15.5 335.5t-50.5 174.5q-41 68 -114 95.5t-225 27.5h-166v-559h274v-98h-274v-596zM150 1475h329q142 0 224.5 -23.5t140.5 -77.5q81 -76 115 -216t34 -425q0 -281 -34 -419.5t-115 -213.5 q-58 -53 -140.5 -76.5t-224.5 -23.5h-329v709h-140v98h140v668z" />
<glyph unicode="&#xd1;" horiz-adv-x="1214" d="M139 0v1475h207l623 -1391q-13 80 -19 161t-6 163v1067h129v-1475h-199l-624 1380q10 -64 15 -137.5t5 -157.5v-1085h-131zM872 1871q-24 -89 -68 -134.5t-106 -45.5q-26 0 -38.5 2.5t-22.5 7.5l-62 27q-15 6 -28.5 9t-26.5 3q-33 0 -57 -18t-39 -55h-80q24 89 67 134.5 t105 45.5q26 0 38.5 -2.5t22.5 -7.5l64 -27q16 -7 28 -9.5t25 -2.5q33 0 57 18t39 55h82z" />
<glyph unicode="&#xd2;" horiz-adv-x="1133" d="M113 737q0 303 26.5 429.5t89.5 201.5q56 65 140 97t196 32q111 0 196.5 -32.5t139.5 -96.5q64 -76 90.5 -205t26.5 -426q0 -298 -26.5 -427t-90.5 -204q-54 -62 -142 -96.5t-194 -34.5t-193.5 34.5t-142.5 96.5q-64 75 -90 204t-26 427zM250 737q0 -385 69 -516 t246 -131t245.5 130t68.5 517q0 389 -68.5 519t-245.5 130t-246 -131.5t-69 -517.5zM600 1609l-269 348h152l209 -348h-92z" />
<glyph unicode="&#xd3;" horiz-adv-x="1133" d="M113 737q0 303 26.5 429.5t89.5 201.5q56 65 140 97t196 32q111 0 196.5 -32.5t139.5 -96.5q64 -76 90.5 -205t26.5 -426q0 -298 -26.5 -427t-90.5 -204q-54 -62 -142 -96.5t-194 -34.5t-193.5 34.5t-142.5 96.5q-64 75 -90 204t-26 427zM250 737q0 -385 69 -516 t246 -131t245.5 130t68.5 517q0 389 -68.5 519t-245.5 130t-246 -131.5t-69 -517.5zM534 1609h-92l209 348h152z" />
<glyph unicode="&#xd4;" horiz-adv-x="1133" d="M113 737q0 303 26.5 429.5t89.5 201.5q56 65 140 97t196 32q111 0 196.5 -32.5t139.5 -96.5q64 -76 90.5 -205t26.5 -426q0 -298 -26.5 -427t-90.5 -204q-54 -62 -142 -96.5t-194 -34.5t-193.5 34.5t-142.5 96.5q-64 75 -90 204t-26 427zM250 737q0 -385 69 -516 t246 -131t245.5 130t68.5 517q0 389 -68.5 519t-245.5 130t-246 -131.5t-69 -517.5zM291 1609l200 348h152l200 -348h-92l-184 262l-184 -262h-92z" />
<glyph unicode="&#xd5;" horiz-adv-x="1133" d="M113 737q0 303 26.5 429.5t89.5 201.5q56 65 140 97t196 32q111 0 196.5 -32.5t139.5 -96.5q64 -76 90.5 -205t26.5 -426q0 -298 -26.5 -427t-90.5 -204q-54 -62 -142 -96.5t-194 -34.5t-193.5 34.5t-142.5 96.5q-64 75 -90 204t-26 427zM250 737q0 -385 69 -516 t246 -131t245.5 130t68.5 517q0 389 -68.5 519t-245.5 130t-246 -131.5t-69 -517.5zM831 1871q-24 -89 -68 -134.5t-106 -45.5q-26 0 -38.5 2.5t-22.5 7.5l-62 27q-15 6 -28.5 9t-26.5 3q-33 0 -57 -18t-39 -55h-80q24 89 67 134.5t105 45.5q26 0 38.5 -2.5t22.5 -7.5 l64 -27q16 -7 28 -9.5t25 -2.5q33 0 57 18t39 55h82z" />
<glyph unicode="&#xd6;" horiz-adv-x="1133" d="M113 737q0 303 26.5 429.5t89.5 201.5q56 65 140 97t196 32q111 0 196.5 -32.5t139.5 -96.5q64 -76 90.5 -205t26.5 -426q0 -298 -26.5 -427t-90.5 -204q-54 -62 -142 -96.5t-194 -34.5t-193.5 34.5t-142.5 96.5q-64 75 -90 204t-26 427zM250 737q0 -385 69 -516 t246 -131t245.5 130t68.5 517q0 389 -68.5 519t-245.5 130t-246 -131.5t-69 -517.5zM657 1687v162h141v-162h-141zM336 1687v162h141v-162h-141z" />
<glyph unicode="&#xd7;" horiz-adv-x="1706" d="M854 668l487 487l58 -57l-488 -488l488 -487l-58 -57l-487 487l-487 -487l-58 57l488 487l-488 488l58 57z" />
<glyph unicode="&#xd8;" horiz-adv-x="1133" d="M281 313l526 957q-36 58 -97 87t-145 29q-177 0 -246 -131.5t-69 -517.5q0 -143 7.5 -246t23.5 -178zM850 1169l-531 -966q54 -59 112 -86t134 -27q177 0 245.5 129t68.5 518q0 160 -7 261.5t-22 170.5zM190 150q-41 68 -59 220.5t-18 444.5q0 382 102 532t350 150 q101 0 176.5 -24.5t132.5 -75.5l87 155l71 -49l-96 -176q44 -65 63 -210t19 -441q0 -242 -27 -369t-90 -201q-54 -62 -142 -96.5t-194 -34.5q-92 0 -168.5 26t-146.5 81l-88 -166l-76 39z" />
<glyph unicode="&#xd9;" horiz-adv-x="1139" d="M137 1475h133v-967q0 -133 11.5 -198.5t37.5 -104.5q40 -58 104.5 -89.5t145.5 -31.5t146 31.5t104 89.5q27 39 38 104.5t11 198.5v967h131v-967q0 -289 -99.5 -411t-330.5 -122q-230 0 -331 123.5t-101 409.5v967zM602 1609l-269 348h152l209 -348h-92z" />
<glyph unicode="&#xda;" horiz-adv-x="1139" d="M137 1475h133v-967q0 -133 11.5 -198.5t37.5 -104.5q40 -58 104.5 -89.5t145.5 -31.5t146 31.5t104 89.5q27 39 38 104.5t11 198.5v967h131v-967q0 -289 -99.5 -411t-330.5 -122q-230 0 -331 123.5t-101 409.5v967zM536 1609h-92l209 348h152z" />
<glyph unicode="&#xdb;" horiz-adv-x="1139" d="M137 1475h133v-967q0 -133 11.5 -198.5t37.5 -104.5q40 -58 104.5 -89.5t145.5 -31.5t146 31.5t104 89.5q27 39 38 104.5t11 198.5v967h131v-967q0 -289 -99.5 -411t-330.5 -122q-230 0 -331 123.5t-101 409.5v967zM293 1609l200 348h152l200 -348h-92l-184 262 l-184 -262h-92z" />
<glyph unicode="&#xdc;" horiz-adv-x="1139" d="M137 1475h133v-967q0 -133 11.5 -198.5t37.5 -104.5q40 -58 104.5 -89.5t145.5 -31.5t146 31.5t104 89.5q27 39 38 104.5t11 198.5v967h131v-967q0 -289 -99.5 -411t-330.5 -122q-230 0 -331 123.5t-101 409.5v967zM659 1687v162h141v-162h-141zM338 1687v162h141v-162 h-141z" />
<glyph unicode="&#xdd;" horiz-adv-x="952" d="M412 0v602l-422 873h153l338 -734l344 734h138l-418 -873v-602h-133zM444 1609h-92l209 348h152z" />
<glyph unicode="&#xde;" horiz-adv-x="915" d="M272 1077v-588h191q164 0 226.5 65t62.5 232q0 162 -63 226.5t-226 64.5h-191zM487 1180q208 0 299 -92t91 -302q0 -217 -95.5 -308t-328.5 -91h-181v-387h-133v1475h133v-295h215z" />
<glyph unicode="&#xdf;" horiz-adv-x="995" d="M119 0v1130q0 179 86.5 271t255.5 92q153 0 241.5 -63.5t88.5 -172.5q0 -46 -25.5 -107t-79.5 -142l-32 -49q-81 -119 -81 -166q0 -58 139 -187l87 -84q65 -65 97 -129t32 -131q0 -127 -88.5 -207t-231.5 -80q-129 0 -196 73t-72 218h127v-12q0 -82 40.5 -125t117.5 -43 q74 0 125 49t51 119q0 92 -152 240l-8 8l-51 49q-146 138 -146 233q0 66 92 207l42 64q56 90 72 128.5t16 69.5q0 64 -51.5 104t-135.5 40q-135 0 -186 -68.5t-51 -306.5v-1022h-123z" />
<glyph unicode="&#xe0;" horiz-adv-x="874" d="M622 541q-257 -2 -349.5 -55t-92.5 -189q0 -97 47.5 -152t130.5 -55q130 0 197.5 85.5t67.5 250.5zM647 0l-12 141q-59 -74 -135 -111.5t-166 -37.5q-125 0 -200 83.5t-75 221.5q0 163 111.5 244.5t343.5 89.5l109 4v113q0 111 -50.5 158.5t-164.5 47.5q-94 0 -140.5 -43 t-48.5 -130l-125 -1q0 135 85 204t251 69q165 0 242.5 -72.5t77.5 -226.5v-566q0 -43 3 -90.5t9 -97.5h-115zM471 1163l-269 348h152l209 -348h-92z" />
<glyph unicode="&#xe1;" horiz-adv-x="874" d="M622 541q-257 -2 -349.5 -55t-92.5 -189q0 -97 47.5 -152t130.5 -55q130 0 197.5 85.5t67.5 250.5zM647 0l-12 141q-59 -74 -135 -111.5t-166 -37.5q-125 0 -200 83.5t-75 221.5q0 163 111.5 244.5t343.5 89.5l109 4v113q0 111 -50.5 158.5t-164.5 47.5q-94 0 -140.5 -43 t-48.5 -130l-125 -1q0 135 85 204t251 69q165 0 242.5 -72.5t77.5 -226.5v-566q0 -43 3 -90.5t9 -97.5h-115zM405 1163h-92l209 348h152z" />
<glyph unicode="&#xe2;" horiz-adv-x="874" d="M622 541q-257 -2 -349.5 -55t-92.5 -189q0 -97 47.5 -152t130.5 -55q130 0 197.5 85.5t67.5 250.5zM647 0l-12 141q-59 -74 -135 -111.5t-166 -37.5q-125 0 -200 83.5t-75 221.5q0 163 111.5 244.5t343.5 89.5l109 4v113q0 111 -50.5 158.5t-164.5 47.5q-94 0 -140.5 -43 t-48.5 -130l-125 -1q0 135 85 204t251 69q165 0 242.5 -72.5t77.5 -226.5v-566q0 -43 3 -90.5t9 -97.5h-115zM162 1163l200 348h152l200 -348h-92l-184 262l-184 -262h-92z" />
<glyph unicode="&#xe3;" horiz-adv-x="874" d="M622 541q-257 -2 -349.5 -55t-92.5 -189q0 -97 47.5 -152t130.5 -55q130 0 197.5 85.5t67.5 250.5zM647 0l-12 141q-59 -74 -135 -111.5t-166 -37.5q-125 0 -200 83.5t-75 221.5q0 163 111.5 244.5t343.5 89.5l109 4v113q0 111 -50.5 158.5t-164.5 47.5q-94 0 -140.5 -43 t-48.5 -130l-125 -1q0 135 85 204t251 69q165 0 242.5 -72.5t77.5 -226.5v-566q0 -43 3 -90.5t9 -97.5h-115zM702 1425q-24 -89 -68 -134.5t-106 -45.5q-26 0 -38.5 2.5t-22.5 7.5l-62 27q-15 6 -28.5 9t-26.5 3q-33 0 -57 -18t-39 -55h-80q24 89 67 134.5t105 45.5 q26 0 38.5 -2.5t22.5 -7.5l64 -27q16 -7 28 -9.5t25 -2.5q33 0 57 18t39 55h82z" />
<glyph unicode="&#xe4;" horiz-adv-x="874" d="M622 541q-257 -2 -349.5 -55t-92.5 -189q0 -97 47.5 -152t130.5 -55q130 0 197.5 85.5t67.5 250.5zM647 0l-12 141q-59 -74 -135 -111.5t-166 -37.5q-125 0 -200 83.5t-75 221.5q0 163 111.5 244.5t343.5 89.5l109 4v113q0 111 -50.5 158.5t-164.5 47.5q-94 0 -140.5 -43 t-48.5 -130l-125 -1q0 135 85 204t251 69q165 0 242.5 -72.5t77.5 -226.5v-566q0 -43 3 -90.5t9 -97.5h-115zM528 1241v162h141v-162h-141zM207 1241v162h141v-162h-141z" />
<glyph unicode="&#xe5;" horiz-adv-x="874" d="M631 540q-259 -1 -352 -54.5t-93 -188.5q0 -97 47.5 -152t131.5 -55q128 0 197 86.5t69 249.5v114zM641 0v141q-59 -74 -135 -111.5t-166 -37.5q-124 0 -199 83.5t-75 221.5q0 163 111 244.5t343 89.5l109 4v113q0 111 -50.5 158.5t-164.5 47.5q-94 0 -140.5 -43 t-48.5 -131h-125q0 135 85 204t251 69q165 0 242.5 -72.5t77.5 -226.5v-754h-115zM301 1337q0 -56 40 -96.5t97 -40.5t97 40.5t40 96.5q0 57 -40 96.5t-97 39.5q-56 0 -95.5 -39t-41.5 -97zM219 1337q0 92 64 154.5t155 62.5q93 0 156 -62.5t63 -154.5t-63.5 -155.5 t-155.5 -63.5q-90 0 -154.5 64.5t-64.5 154.5z" />
<glyph unicode="&#xe6;" horiz-adv-x="1454" d="M666 178q-45 -96 -130.5 -149.5t-195.5 -53.5q-126 0 -199 84.5t-73 229.5q0 171 114.5 258.5t337.5 87.5h109v113q0 111 -50.5 158.5t-164.5 47.5q-94 0 -140.5 -43t-48.5 -131h-125q0 135 85 204t251 69q100 0 169 -30.5t112 -92.5q52 64 121 93.5t168 29.5 q161 0 251.5 -104t90.5 -292v-118h-590v-133q0 -173 54.5 -249.5t176.5 -76.5q112 0 168.5 58.5t56.5 174.5h133q-9 -171 -95 -254.5t-255 -83.5q-130 0 -209.5 49t-121.5 154zM758 633h467v24q0 144 -59 217.5t-173 73.5q-118 0 -176.5 -75.5t-58.5 -229.5v-10zM631 541 q-12 0 -33 1t-31 1q-206 0 -294.5 -58t-88.5 -192q0 -104 47.5 -161.5t133.5 -57.5q132 0 199 88t67 264v115z" />
<glyph unicode="&#xe7;" horiz-adv-x="858" d="M768 305q-6 -163 -91 -248.5t-243 -85.5q-185 0 -265.5 123t-80.5 410q0 295 78.5 422t257.5 127q164 0 250 -79.5t94 -238.5l-123 1q-5 108 -57 165t-146 57q-124 0 -173.5 -93t-49.5 -347q0 -257 48.5 -348.5t170.5 -91.5q104 0 156 56.5t56 170.5h118zM190 -418v76 q77 -18 136 -26.5t102 -8.5q64 0 96.5 22.5t32.5 67.5q0 55 -34.5 80t-108.5 25q-19 0 -28.5 -0.5t-18.5 -1.5v184h63v-111h14q110 0 168 -44t58 -128q0 -85 -59 -130.5t-169 -45.5q-54 0 -114.5 10t-137.5 31z" />
<glyph unicode="&#xe8;" horiz-adv-x="905" d="M221 598h465v45q0 159 -54.5 232t-172.5 73q-121 0 -179.5 -77.5t-58.5 -239.5v-33zM811 311q-9 -169 -95.5 -252.5t-254.5 -83.5q-206 0 -287.5 120t-81.5 448q0 175 20.5 258.5t69.5 140.5q46 53 118 82t161 29q168 0 259 -103t91 -293v-163h-592v-88 q0 -169 56.5 -247.5t177.5 -78.5q112 0 168.5 58t56.5 173h133zM500 1163l-269 348h152l209 -348h-92z" />
<glyph unicode="&#xe9;" horiz-adv-x="905" d="M221 598h465v45q0 159 -54.5 232t-172.5 73q-121 0 -179.5 -77.5t-58.5 -239.5v-33zM811 311q-9 -169 -95.5 -252.5t-254.5 -83.5q-206 0 -287.5 120t-81.5 448q0 175 20.5 258.5t69.5 140.5q46 53 118 82t161 29q168 0 259 -103t91 -293v-163h-592v-88 q0 -169 56.5 -247.5t177.5 -78.5q112 0 168.5 58t56.5 173h133zM434 1163h-92l209 348h152z" />
<glyph unicode="&#xea;" horiz-adv-x="905" d="M221 598h465v45q0 159 -54.5 232t-172.5 73q-121 0 -179.5 -77.5t-58.5 -239.5v-33zM811 311q-9 -169 -95.5 -252.5t-254.5 -83.5q-206 0 -287.5 120t-81.5 448q0 175 20.5 258.5t69.5 140.5q46 53 118 82t161 29q168 0 259 -103t91 -293v-163h-592v-88 q0 -169 56.5 -247.5t177.5 -78.5q112 0 168.5 58t56.5 173h133zM191 1163l200 348h152l200 -348h-92l-184 262l-184 -262h-92z" />
<glyph unicode="&#xeb;" horiz-adv-x="905" d="M221 598h465v45q0 159 -54.5 232t-172.5 73q-121 0 -179.5 -77.5t-58.5 -239.5v-33zM811 311q-9 -169 -95.5 -252.5t-254.5 -83.5q-206 0 -287.5 120t-81.5 448q0 175 20.5 258.5t69.5 140.5q46 53 118 82t161 29q168 0 259 -103t91 -293v-163h-592v-88 q0 -169 56.5 -247.5t177.5 -78.5q112 0 168.5 58t56.5 173h133zM557 1241v162h141v-162h-141zM236 1241v162h141v-162h-141z" />
<glyph unicode="&#xec;" horiz-adv-x="371" d="M119 0v1028h133v-1028h-133zM219 1163l-269 348h152l209 -348h-92z" />
<glyph unicode="&#xed;" horiz-adv-x="371" d="M119 0v1028h133v-1028h-133zM153 1163h-92l209 348h152z" />
<glyph unicode="&#xee;" horiz-adv-x="371" d="M119 0v1028h133v-1028h-133zM-90 1163l200 348h152l200 -348h-92l-184 262l-184 -262h-92z" />
<glyph unicode="&#xef;" horiz-adv-x="371" d="M119 0v1028h133v-1028h-133zM276 1241v162h141v-162h-141zM-45 1241v162h141v-162h-141z" />
<glyph unicode="&#xf0;" horiz-adv-x="895" d="M594 995q-17 48 -47 100.5t-76 112.5l-242 -90l-32 80l213 80q-31 34 -80 67.5t-115 65.5l37 72q67 -29 132 -70t130 -96l231 88l35 -80l-205 -80q123 -159 177.5 -340.5t54.5 -441.5q0 -259 -83 -373.5t-269 -114.5q-191 0 -273 119t-82 404q0 286 81.5 404t271.5 118 q44 0 78.5 -6t62.5 -19zM453 76q122 0 175.5 90.5t53.5 304.5q0 261 -51 355t-178 94q-125 0 -176.5 -92.5t-51.5 -329.5t51.5 -329.5t176.5 -92.5z" />
<glyph unicode="&#xf1;" horiz-adv-x="895" d="M242 0h-123v885q0 23 -2.5 56t-7.5 87h122l11 -121q47 72 115.5 109t154.5 37q124 0 195 -76.5t71 -210.5v-766h-123v717q0 117 -43 173t-135 56q-114 0 -174.5 -89.5t-60.5 -258.5v-598zM713 1425q-24 -89 -68 -134.5t-106 -45.5q-26 0 -38.5 2.5t-22.5 7.5l-62 27 q-15 6 -28.5 9t-26.5 3q-33 0 -57 -18t-39 -55h-80q24 89 67 134.5t105 45.5q26 0 38.5 -2.5t22.5 -7.5l64 -27q16 -7 28 -9.5t25 -2.5q33 0 57 18t39 55h82z" />
<glyph unicode="&#xf2;" horiz-adv-x="905" d="M92 514q0 296 83 417.5t278 121.5q194 0 277 -121.5t83 -417.5q0 -299 -82 -419t-276 -120q-195 0 -279 123t-84 416zM453 80q125 0 179 92.5t54 314.5q0 267 -52 364t-181 97q-128 0 -181 -95.5t-53 -338.5q0 -246 52.5 -340t181.5 -94zM486 1163l-269 348h152l209 -348 h-92z" />
<glyph unicode="&#xf3;" horiz-adv-x="905" d="M92 514q0 296 83 417.5t278 121.5q194 0 277 -121.5t83 -417.5q0 -299 -82 -419t-276 -120q-195 0 -279 123t-84 416zM453 80q125 0 179 92.5t54 314.5q0 267 -52 364t-181 97q-128 0 -181 -95.5t-53 -338.5q0 -246 52.5 -340t181.5 -94zM420 1163h-92l209 348h152z" />
<glyph unicode="&#xf4;" horiz-adv-x="905" d="M92 514q0 296 83 417.5t278 121.5q194 0 277 -121.5t83 -417.5q0 -299 -82 -419t-276 -120q-195 0 -279 123t-84 416zM453 80q125 0 179 92.5t54 314.5q0 267 -52 364t-181 97q-128 0 -181 -95.5t-53 -338.5q0 -246 52.5 -340t181.5 -94zM177 1163l200 348h152l200 -348 h-92l-184 262l-184 -262h-92z" />
<glyph unicode="&#xf5;" horiz-adv-x="905" d="M92 514q0 296 83 417.5t278 121.5q194 0 277 -121.5t83 -417.5q0 -299 -82 -419t-276 -120q-195 0 -279 123t-84 416zM453 80q125 0 179 92.5t54 314.5q0 267 -52 364t-181 97q-128 0 -181 -95.5t-53 -338.5q0 -246 52.5 -340t181.5 -94zM717 1425q-24 -89 -68 -134.5 t-106 -45.5q-26 0 -38.5 2.5t-22.5 7.5l-62 27q-15 6 -28.5 9t-26.5 3q-33 0 -57 -18t-39 -55h-80q24 89 67 134.5t105 45.5q26 0 38.5 -2.5t22.5 -7.5l64 -27q16 -7 28 -9.5t25 -2.5q33 0 57 18t39 55h82z" />
<glyph unicode="&#xf6;" horiz-adv-x="905" d="M92 514q0 296 83 417.5t278 121.5q194 0 277 -121.5t83 -417.5q0 -299 -82 -419t-276 -120q-195 0 -279 123t-84 416zM453 80q125 0 179 92.5t54 314.5q0 267 -52 364t-181 97q-128 0 -181 -95.5t-53 -338.5q0 -246 52.5 -340t181.5 -94zM543 1241v162h141v-162h-141z M222 1241v162h141v-162h-141z" />
<glyph unicode="&#xf7;" horiz-adv-x="1706" d="M854 365q41 0 69.5 -29.5t28.5 -71.5q0 -40 -28.5 -69t-69.5 -29t-69.5 28.5t-28.5 69.5t29 71t69 30zM1452 651v-82h-1198v82h1198zM854 1055q41 0 69.5 -28.5t28.5 -70.5q0 -40 -28.5 -70t-69.5 -30t-69.5 29.5t-28.5 70.5t28.5 70t69.5 29z" />
<glyph unicode="&#xf8;" horiz-adv-x="905" d="M55 -53l105 164q-36 54 -53 153t-17 250q0 291 84.5 415t278.5 124q78 0 137 -19.5t104 -60.5l94 139l58 -43l-101 -154q37 -48 52.5 -143.5t15.5 -282.5q0 -274 -84 -394t-274 -120q-81 0 -143.5 21.5t-100.5 60.5l-96 -151zM668 780l-394 -614q28 -44 72 -65t111 -21 q128 0 180.5 94t52.5 340q0 95 -6 165t-16 101zM238 240l391 620q-21 43 -67 65.5t-113 22.5q-130 0 -183 -98t-53 -350q0 -91 6 -155.5t19 -104.5z" />
<glyph unicode="&#xf9;" horiz-adv-x="895" d="M653 1028h123v-885q0 -19 2.5 -52.5t7.5 -90.5h-124l-9 121q-47 -72 -115.5 -109t-154.5 -37q-125 0 -195.5 76.5t-70.5 210.5v766h123v-717q0 -117 43 -172t135 -55q114 0 174.5 88.5t60.5 257.5v598zM482 1163l-269 348h152l209 -348h-92z" />
<glyph unicode="&#xfa;" horiz-adv-x="895" d="M653 1028h123v-885q0 -19 2.5 -52.5t7.5 -90.5h-124l-9 121q-47 -72 -115.5 -109t-154.5 -37q-125 0 -195.5 76.5t-70.5 210.5v766h123v-717q0 -117 43 -172t135 -55q114 0 174.5 88.5t60.5 257.5v598zM416 1163h-92l209 348h152z" />
<glyph unicode="&#xfb;" horiz-adv-x="895" d="M653 1028h123v-885q0 -19 2.5 -52.5t7.5 -90.5h-124l-9 121q-47 -72 -115.5 -109t-154.5 -37q-125 0 -195.5 76.5t-70.5 210.5v766h123v-717q0 -117 43 -172t135 -55q114 0 174.5 88.5t60.5 257.5v598zM173 1163l200 348h152l200 -348h-92l-184 262l-184 -262h-92z" />
<glyph unicode="&#xfc;" horiz-adv-x="895" d="M653 1028h123v-885q0 -19 2.5 -52.5t7.5 -90.5h-124l-9 121q-47 -72 -115.5 -109t-154.5 -37q-125 0 -195.5 76.5t-70.5 210.5v766h123v-717q0 -117 43 -172t135 -55q114 0 174.5 88.5t60.5 257.5v598zM539 1241v162h141v-162h-141zM218 1241v162h141v-162h-141z" />
<glyph unicode="&#xfd;" horiz-adv-x="801" d="M231 -389l121 401l-327 1016h127l264 -856l235 856h123l-418 -1417h-125zM368 1163h-92l209 348h152z" />
<glyph unicode="&#xfe;" horiz-adv-x="915" d="M698 543q0 219 -51.5 310t-173.5 91q-114 0 -170.5 -100.5t-56.5 -302.5q0 -248 53 -352.5t174 -104.5q126 0 175.5 95.5t49.5 363.5zM121 1475h119v-568q47 74 109 109t145 35q173 0 251 -126.5t78 -410.5q0 -287 -77.5 -410.5t-251.5 -123.5q-79 0 -142 34.5 t-112 106.5v-510h-119v1864z" />
<glyph unicode="&#xff;" horiz-adv-x="801" d="M231 -389l121 401l-327 1016h127l264 -856l235 856h123l-418 -1417h-125zM491 1241v162h141v-162h-141zM170 1241v162h141v-162h-141z" />
<glyph unicode="&#x131;" horiz-adv-x="371" d="M119 0v1028h133v-1028h-133z" />
<glyph unicode="&#x152;" horiz-adv-x="1565" d="M821 1360l-135 4h-57q-110 0 -166.5 -16.5t-97.5 -55.5q-60 -56 -84.5 -173t-24.5 -380q0 -269 25.5 -381.5t89.5 -169.5q39 -34 99.5 -48.5t227.5 -14.5h123v1235zM1483 0h-662q-32 0 -107 -4t-118 -4q-132 0 -221.5 31.5t-145.5 97.5q-62 74 -88 194t-26 371 q0 240 14 368t47 214q41 107 139 159t260 52q49 0 131 -2t115 -2h662v-115h-529v-545h498v-108h-498v-584h529v-123z" />
<glyph unicode="&#x153;" horiz-adv-x="1499" d="M750 125q-52 -77 -123 -113.5t-172 -36.5q-195 0 -279 123t-84 416q0 296 83 417.5t278 121.5q103 0 175 -37t122 -115q46 77 121.5 114.5t181.5 37.5q168 0 260 -103.5t92 -292.5v-163h-590v-88q0 -173 55 -249.5t177 -76.5q112 0 168.5 58.5t56.5 174.5h133 q-9 -171 -95 -254.5t-255 -83.5q-113 0 -184.5 35.5t-120.5 114.5zM219 487q0 -222 54 -314.5t180 -92.5q128 0 180.5 94t52.5 340q0 243 -53 338.5t-180 95.5q-130 0 -182 -97t-52 -364zM815 598h465q0 8 1 24.5t1 24.5q0 153 -57 227t-174 74q-121 0 -178.5 -76.5 t-57.5 -238.5v-35z" />
<glyph unicode="&#x178;" horiz-adv-x="952" d="M412 0v602l-422 873h153l338 -734l344 734h138l-418 -873v-602h-133zM567 1687v162h141v-162h-141zM246 1687v162h141v-162h-141z" />
<glyph unicode="&#x2c6;" horiz-adv-x="1024" d="M236 1163l200 348h152l200 -348h-92l-184 262l-184 -262h-92z" />
<glyph unicode="&#x2dc;" horiz-adv-x="1024" d="M776 1425q-24 -89 -68 -134.5t-106 -45.5q-26 0 -38.5 2.5t-22.5 7.5l-62 27q-15 6 -28.5 9t-26.5 3q-33 0 -57 -18t-39 -55h-80q24 89 67 134.5t105 45.5q26 0 38.5 -2.5t22.5 -7.5l64 -27q16 -7 28 -9.5t25 -2.5q33 0 57 18t39 55h82z" />
<glyph unicode="&#x2000;" horiz-adv-x="986" />
<glyph unicode="&#x2001;" horiz-adv-x="1972" />
<glyph unicode="&#x2002;" horiz-adv-x="986" />
<glyph unicode="&#x2003;" horiz-adv-x="1972" />
<glyph unicode="&#x2004;" horiz-adv-x="657" />
<glyph unicode="&#x2005;" horiz-adv-x="493" />
<glyph unicode="&#x2006;" horiz-adv-x="328" />
<glyph unicode="&#x2007;" horiz-adv-x="328" />
<glyph unicode="&#x2008;" horiz-adv-x="246" />
<glyph unicode="&#x2009;" horiz-adv-x="394" />
<glyph unicode="&#x200a;" horiz-adv-x="109" />
<glyph unicode="&#x2010;" horiz-adv-x="569" d="M74 457v114h422v-114h-422z" />
<glyph unicode="&#x2011;" horiz-adv-x="569" d="M74 457v114h422v-114h-422z" />
<glyph unicode="&#x2012;" horiz-adv-x="569" d="M74 457v114h422v-114h-422z" />
<glyph unicode="&#x2013;" horiz-adv-x="1024" d="M0 471v86h1024v-86h-1024z" />
<glyph unicode="&#x2014;" horiz-adv-x="2048" d="M2048 557v-86h-2048v86h2048z" />
<glyph unicode="&#x2018;" horiz-adv-x="403" d="M324 1475l-91 -375h-155l127 375h119z" />
<glyph unicode="&#x2019;" horiz-adv-x="403" d="M78 1100l90 375h158l-129 -375h-119z" />
<glyph unicode="&#x201a;" horiz-adv-x="403" d="M39 -207l90 375h156l-127 -375h-119z" />
<glyph unicode="&#x201c;" horiz-adv-x="727" d="M324 1475l-91 -375h-157l129 375h119zM647 1475l-90 -375h-156l127 375h119z" />
<glyph unicode="&#x201d;" horiz-adv-x="727" d="M401 1100l91 375h157l-129 -375h-119zM78 1100l90 375h156l-127 -375h-119z" />
<glyph unicode="&#x201e;" horiz-adv-x="727" d="M362 -207l91 375h155l-127 -375h-119zM37 -207l90 375h158l-127 -375h-121z" />
<glyph unicode="&#x2022;" horiz-adv-x="1208" d="M307 762q0 123 87 209t210 86q122 0 208.5 -86.5t86.5 -208.5t-87.5 -209.5t-209.5 -87.5q-123 0 -209 87t-86 210z" />
<glyph unicode="&#x2026;" horiz-adv-x="2048" d="M262 0v166h157v-166h-157zM944 0v166h157v-166h-157zM1629 0v166h157v-166h-157z" />
<glyph unicode="&#x202f;" horiz-adv-x="394" />
<glyph unicode="&#x2039;" horiz-adv-x="451" d="M377 121h-119l-184 395l184 393h119l-156 -393z" />
<glyph unicode="&#x203a;" horiz-adv-x="451" d="M74 121l155 395l-155 393h119l184 -393l-184 -395h-119z" />
<glyph unicode="&#x205f;" horiz-adv-x="493" />
<glyph unicode="&#x2122;" horiz-adv-x="1706" d="M926 1454l174 -440l162 440h102v-530h-59v479l-181 -479h-49l-190 479v-479h-60v530h101zM694 1454v-51h-174v-479h-67v479h-179v51h420z" />
<glyph unicode="&#xe000;" horiz-adv-x="1030" d="M0 1030h1030v-1030h-1030v1030z" />
<glyph unicode="&#xfb01;" horiz-adv-x="873" d="M615 1317v158h145v-158h-145zM621 0v1028h133v-1028h-133zM168 0v924h-166v104h166v217q0 89 15.5 131.5t52.5 69.5q36 27 96.5 39t165.5 12v-106h-29q-105 0 -140.5 -34.5t-35.5 -168.5v-160h207v-104h-207v-924h-125z" />
<glyph unicode="&#xfb02;" horiz-adv-x="873" d="M623 0v1475h127v-1475h-127zM168 0v924h-166v104h166v217q0 89 15.5 131.5t52.5 69.5q36 27 96.5 39t165.5 12v-106h-29q-105 0 -140.5 -34.5t-35.5 -168.5v-160h207v-104h-207v-924h-125z" />
<glyph unicode="&#xfb03;" horiz-adv-x="1375" d="M1117 1317v158h145v-158h-145zM1123 0v1028h133v-1028h-133zM670 0v924h-166v104h166v217q0 89 15.5 131.5t52.5 69.5q36 27 96.5 39t165.5 12v-106h-29q-105 0 -140.5 -34.5t-35.5 -168.5v-160h207v-104h-207v-924h-125zM168 0v924h-166v104h166v217q0 89 15.5 131.5 t52.5 69.5q36 27 96.5 39t165.5 12v-106h-29q-105 0 -140.5 -34.5t-35.5 -168.5v-160h207v-104h-207v-924h-125z" />
<glyph unicode="&#xfb04;" horiz-adv-x="1375" d="M1125 0v1475h127v-1475h-127zM670 0v924h-166v104h166v217q0 89 15.5 131.5t52.5 69.5q36 27 96.5 39t165.5 12v-106h-29q-105 0 -140.5 -34.5t-35.5 -168.5v-160h207v-104h-207v-924h-125zM168 0v924h-166v104h166v217q0 89 15.5 131.5t52.5 69.5q36 27 96.5 39 t165.5 12v-106h-29q-105 0 -140.5 -34.5t-35.5 -168.5v-160h207v-104h-207v-924h-125z" />
</font>
</defs>
</svg>
