<?xml version="1.0" standalone="no"?>
<!DOCTYPE svg PUBLIC "-//W3C//DTD SVG 1.1//EN" "http://www.w3.org/Graphics/SVG/1.1/DTD/svg11.dtd" >
<svg xmlns="http://www.w3.org/2000/svg">
<metadata>
This is a custom SVG webfont generated by Font Squirrel.
Copyright   : Copyright 1997 International Typeface Corporation All rights reserved
Designer    : Ron Zwingelberg MW
Foundry URL : httpwwwitcfontscom
</metadata>
<defs>
<font id="webfontDj2UBfEM" horiz-adv-x="479" >
<font-face units-per-em="1000" ascent="800" descent="-200" />
<missing-glyph horiz-adv-x="267" />
<glyph unicode=" "  horiz-adv-x="267" />
<glyph unicode="&#x09;" horiz-adv-x="267" />
<glyph unicode="&#xa0;" horiz-adv-x="267" />
<glyph unicode="!" horiz-adv-x="306" d="M87 101v3l1 3l13 22l7 15l6 5l5 6l14 3l6 1l6 1l5 -1l18 -13l3 -3l9 -18l6 -13l1 -3l-1 -2v-1l-8 -11l-4 -10l-10 -33l-6 -4l-16 -4l-8 1l-6 3l-6 4l-13 4l-14 27l-8 14v4zM223 471l1 11l7 16l9 11l6 18l10 11l6 20l3 4l3 2l11 5l-3 7v1l2 4l17 32l11 29l6 11l8 6l9 2 l8 -2l14 -15l10 -16l12 -33l-2 -8l-5 -10l-32 -40l-18 -31l-7 -22l-13 -12l-10 -22l-22 -34l-5 -14l-5 -8l-15 -47l-5 -5l-2 -12l-6 -4l-1 -15l-11 -25l-12 -74l-10 -11l-6 -7l-5 -1h-2l-2 2l-15 11l-11 6l-13 19l-6 22l3 21l21 53l18 50l35 69l8 21z" />
<glyph unicode="&#x22;" horiz-adv-x="279" d="M123 591l8 22l9 12l6 8l13 8l13 4l9 -2l8 -5l9 -10l11 -21l2 -17l-2 -13l-6 -14l-10 -23l-15 -19l-11 -20l-4 -5l-15 -17l-8 -9l-6 -2h-3l-10 6l-1 7l1 17v21v35l1 14zM237 591l8 22l9 12l6 8l13 8l13 4l10 -2l7 -5l9 -10l11 -21l2 -17l-2 -13l-5 -14l-11 -23l-14 -19 l-12 -20l-4 -5l-15 -17l-7 -9l-7 -2h-3l-10 6l-1 7l1 17l1 21l-1 35l1 14z" />
<glyph unicode="$" horiz-adv-x="539" d="M-67 138l8 -1l15 -7l7 3l5 1l7 -7l7 -4l6 3l12 -4l13 -2l4 1l19 2l21 -2l11 1l4 11l14 32l11 16l6 21l31 53l3 16l10 17l10 15l10 26l2 11l7 9l9 12l4 11l6 11l2 8l4 14l-26 2l-17 6l-26 37l-12 30l-1 14l4 21l7 10l24 23l10 12l25 14l6 8l14 -1l9 10l7 4l69 25l11 6 l14 3l6 8l15 20l6 22l16 13v14l4 9l3 2l3 1l4 -1l7 -8l3 -8l-1 -4l-5 -12l-1 -10l-6 -13l-7 -9l-9 -5l-5 -2l-1 -1l-1 -5l4 -3l8 1l25 1l12 2l6 10l9 12v2l1 13l14 17l6 15l7 10l4 10l21 -4l2 -16l-2 -9l-12 -28l-9 -23l-5 -12l5 -2l14 -2l11 -2l3 -7l10 -13l4 -7l1 -10 l-1 -10l-5 -18l-3 -16l-6 -9l-4 -3h-3h-2l-9 11l-5 15l1 7l2 4l10 9l-10 9l-18 3l-17 -1l-12 -3l-4 -10l-5 -14l-13 -9l1 -11v-11l-9 -10l-6 -19l-8 -21l-3 -11l11 -5l41 -17l7 -5l10 -12l12 -22l5 -13l6 -13l1 -17l3 -12l2 -40v-9l-2 -9v-21l-8 -13l-6 -18l-7 -8l-10 -23 l-9 -10l-7 -11l-23 -20l-8 -8l-16 -10l-19 -15l-23 -11l-24 -14l-16 -6l-16 -9l-26 -8l-38 -11h-12l-5 -10l-10 -21l-5 -9l-4 -10l-11 -3l-4 1l-2 2l-6 24l-2 10l-14 1l-21 -3l-12 -1l-9 -12l-8 -13l-5 -15l-1 -1l-6 -4l-6 -1l-5 1l-6 5l-13 20l2 12l-12 7h-13l-13 5l-27 12 l-6 4l-5 6l-14 20l-11 21zM134 142l14 -1l9 5l17 3l5 10l25 48l20 47l13 32l4 19l18 29l23 57l8 14l-14 2l-14 -1h-14l-7 -15l-13 -12l-1 -1l-4 -23l-39 -76l-23 -68l-4 -9l2 -4l-9 -16l-7 -5v-19l-4 -4zM232 470l7 11l10 12l5 19l17 18l3 8v12l-14 -3l-13 -4l-34 -21 l-20 -12l-21 -21l-4 -11v-2l2 -2l12 -4l17 -3l4 1l18 2h11zM218 164l9 3l21 8l8 3l12 11l10 1l32 14l30 22l19 16l16 17l7 11l17 14l5 6l2 6l2 10l10 16l6 19l1 16l1 12l-3 8l-10 9l-26 10l-29 7h-1l-22 -2l-13 1l-5 -15l-37 -78l-10 -33l-20 -49l-4 -13l-1 -1l-6 -5l-7 -17 l-9 -16zM277 476l8 2l18 2h3l18 -1l4 10l20 41l2 7l11 9v9l15 23l1 12l-10 -6l-22 -2l-31 -12l-5 -5l-5 -25l-24 -52z" />
<glyph unicode="%" horiz-adv-x="433" d="M131 244l9 6l8 12l6 14l11 13l6 11l15 14l29 39l7 8l8 2l-1 12l9 9l14 18l20 23l4 8l1 1h8l12 18l4 10l17 21l20 20l10 6l4 15l25 24l33 33l12 8l6 8l7 10l-9 7l-3 1l-6 -12l-9 -1l-4 -7l-6 -5l-3 -6h-10l-10 -3l-11 -12l-6 -10l-10 -5l-5 -7l-46 -35l-33 -31l-12 -4 l-30 -29l-11 -1l-15 -15l-13 -5l-8 5l-11 -2l1 -14l-12 -3l-40 -21l-5 -1l-17 5l-3 2l-13 12l-3 10l1 17v18l2 5l1 1l25 25l7 11l17 17l26 15l4 8l5 6l9 6l15 7l29 18l10 2l20 12l20 1l21 6l4 -3l2 -4l1 -11l10 4l6 7l7 5l12 8l13 4l25 12l12 1l6 6l10 -1l9 7l12 1l4 8h10 l22 7l22 6l17 8l31 17l5 1l8 -2l7 -7l4 -16l-3 -16l-8 -25l-9 -15l-10 -21l-11 -3l-11 -6l-16 -9l-34 -36l-30 -27l-17 -21l-33 -25l-22 -28l-9 -8l-8 -14l-12 -6l-8 -7l-8 -11l-6 -13l-4 -10h-10l-2 -16l-8 -5l-3 -15l-9 -2l-5 -3l-2 -3l-9 -16l-13 -13l-11 -17l-11 -10 l-5 -9l-11 -6v-10l-2 -12l-4 -6l-14 -17l-26 -42l-8 -12l-7 -14l-7 -22l-4 -13l1 -14l-1 -12l11 -38v-12l-5 -24l-13 -11l-12 -3l-14 2l-20 4l-9 7l-3 4l-5 14l-7 13l-2 14v12v4l3 15l1 10l14 30l4 12l16 28l15 31l25 32l9 16l8 13zM174 141l5 9l22 33l7 13l45 43l6 7l10 5 l28 23l12 3l5 4h5l1 -11l-4 -8l-5 -10l27 9l13 -24l4 -9l4 -16l2 -12l-7 -8l-3 -11l-15 -12l-9 -22l-18 -19l-7 -2l-11 -13l-8 -6l-9 -10l-12 -2l-8 -7l-6 -5l-14 -6l-8 -5h-2l-8 2l-13 2l-6 7l-11 18l-10 22l-2 10v8zM118 457l10 3l17 7l38 25l8 7l11 5l8 10l31 20l9 10 l17 4v11l-18 -2l-23 -7l-12 -12l-9 3l-7 -9l-8 -9l-10 -2l-6 -12l-36 -30l-13 -14zM215 111l12 6l27 18l14 18l9 13l8 7l9 20l-1 1h-5l-7 8l-3 8l-1 5l1 4l9 13l6 8l-10 -6l-24 -35l-13 -3l-5 -9l-8 -16l-4 -15l-3 -11l-10 -3l-1 -3l-1 -9v-4z" />
<glyph unicode="&#x26;" horiz-adv-x="733" d="M87 240l5 9l6 8l17 16l7 8l22 18l19 15l10 5l8 8l39 22l11 8l31 12l16 11l18 5l12 8l-13 9l-18 17l-6 6l-2 25v13v5l7 12l16 24l10 18l16 14l11 15l15 12l9 11l20 12l17 18l24 11l53 28l18 5l12 5l24 -1l20 4l7 1l10 -2l11 -9l7 -7l5 -17l5 -17l1 -15l-2 -13l-6 -11 l-9 -20l-6 -6l-13 -7l-13 -4h-1l-11 7l-10 5v10l2 12l3 4l26 19l1 2l2 10l1 12l-16 3l-11 -2h-12h-1l-12 -2l-7 -5l-10 -9l-36 -20l-14 -12l-23 -27l-9 -8l-8 -10l-4 -8l-16 -15l-6 -11l-8 -11l-2 -6l-4 -15l1 -4l9 -7l23 -5h3l32 7l26 -1l16 7l40 9l31 13l12 2l15 20l10 9 l17 29l16 18l8 9l4 1l6 -2l10 -10l6 -18l3 -13l-2 -8l-12 -17l-12 -10l-2 -6l1 -5l11 6l13 5h1l23 -5l13 7l13 3l10 3h19l16 -1l9 -3l6 -5l6 -9l9 -11l3 -17l1 -11l-19 -8l-12 2l-32 -2l-17 4l-35 -6l-18 1l-15 -7l-18 2l-13 -7h-11l-3 -12l-6 -3l-4 -11l-10 -4l-3 -9 l-6 -10l-5 -11l-15 -7l-2 -10l-3 -6l-3 -4l-13 -12l-9 -23l-7 -10l-2 -10l-7 -2l-5 -11l-6 -7l-3 -12l-12 -7l-3 -6l1 -6v-3v-4l-1 -1l-9 -12l-1 -8l-7 -10v-11l-3 -7l1 -18l13 -2l20 -3l8 1l5 3l8 6l13 -1l28 19l37 19l13 12l13 1l6 10l6 3l9 9l10 8l4 5l10 7l7 8l10 4 l12 -16l-3 -11v-10l-2 -5l-6 -8l-10 -8l-9 -12l-20 -19l-9 -11l-11 -9l-5 -11l-10 1l-13 -15l-14 -4l-18 -9l-9 -2l-14 -12l-22 -3l-9 -3l-18 -2l-10 -4l-6 1l-3 3l-6 8l-17 8l-6 10l-17 22l-4 16l-7 -9l-16 -19l-6 -8l-7 -2l-15 -17l-15 -9l-7 -7l-14 -4l-15 -11l-15 -3 l-12 -8l-13 4l-19 -11l-10 1l-12 -2l-15 6l-21 -7h-2l-5 1l-36 18l-25 7l-12 6l-4 5l-9 14l-12 14l-6 20l-4 15v16v22l10 32l3 8l9 15zM314 151l11 3l8 9l10 6l6 10l18 8l4 10l19 24l14 28l11 17l10 22l5 11h13l1 1v2v1l-1 2l-5 3l4 15l8 10l7 7l4 10l10 12l11 23l10 6v4 l-5 2l-6 -3l-23 -1l-11 -5l-14 -1l-21 -9l-29 -1l-15 -5l-13 -2l-24 -14l-7 -2l-9 -3l-5 -10l-10 -3l-4 -6l-15 -7l-6 -6l-21 -9l-17 -18l-8 -5l-8 -12h-11l-9 -11l-28 -32l-9 -9l-2 -7l-1 -11l-9 -4l-4 -6l-6 -40l3 -25l2 -1l13 -9l7 -5l11 -3l8 -3h10l10 -2l19 6h13l9 3 l26 14l17 6l5 5l11 2z" />
<glyph unicode="'" horiz-adv-x="164" d="M123 591l8 22l9 12l6 8l13 8l13 4l9 -2l8 -5l9 -10l11 -21l2 -17l-2 -13l-6 -14l-10 -23l-15 -19l-11 -20l-4 -5l-15 -17l-8 -9l-6 -2h-3l-10 6l-1 7l1 17v21v35l1 14z" />
<glyph unicode="(" horiz-adv-x="379" d="M195 227l4 20v12l7 26v14l6 32l4 13l9 6l5 11v13l9 16l-1 15l17 24l20 39l10 11v10l8 11l17 18l10 24l11 4l9 8l6 5l5 10l21 17l46 50l49 35l20 16l8 1l11 9l5 2l16 9l8 -2l5 -5l1 -5l-1 -5l-3 -4l-6 -3l-11 -2l-1 -12l-3 -5l-2 -1l-14 -4l-12 -12l-20 -11l-18 -27 l-16 -10l-9 -17l-15 -9l-11 -27l-16 -19l-22 -39l-19 -22l-11 -20l-46 -114l-7 -9l-8 -13l4 -18l-9 -17l-1 -7l-1 -39l-4 -24l1 -46l-4 -15l3 -12l4 -26l7 -20l-1 -11l1 -5l47 -73l3 -5l1 -3l-1 -4l-3 -2l-6 -2l-11 2l-10 4l-9 8l-12 20l-11 14l-6 11l-13 14l-15 29l-15 23 l-3 10l7 6l-4 10l-5 15l-4 20l-3 11l1 29l1 7v1z" />
<glyph unicode=")" horiz-adv-x="379" d="M148 107l18 16l2 11l26 32l11 33l16 30l5 25l29 60l2 23l12 27l1 20l9 6l-4 16l11 48l2 13l-1 5l-3 11l1 21l-2 23l-2 17l-12 30v5v2l7 11l-5 3l-3 6l-7 7l-1 13l-7 11l-1 7l-6 9l-6 12l-21 22l-1 12l6 3h1l14 -4l25 -20l13 -17l23 -33l10 -21l8 -21l6 -32l10 -27v-20 l4 -29l-3 -28l5 -39l-8 -34l2 -28l-3 -9l-5 -21l-6 -8l-2 -11l-5 -10l-2 -15l-5 -26l-8 -14l-13 -31l-10 -16l-2 -9l-2 -8l-8 -10l-12 -25l-9 -6l-5 -15l-20 -11l-12 -15l-8 -9l-8 -2l-8 -18l-9 -4l-6 -6l-8 -3l-9 -11l-29 -13l-19 -14l-14 -3l-7 -4l-6 -5l-6 -9l-17 -4 l-3 2l-2 3v4l1 6l4 5l16 13l8 9l12 10l19 23l38 40z" />
<glyph unicode="*" horiz-adv-x="335" d="M307 610l4 13l7 11l1 14l8 8v2v5l-2 10l10 5h3l7 -2l8 -6l6 -13l2 -13l-3 -4l-9 -7l-4 -19v-3l12 5l10 6l6 7l3 3l6 2l11 -1l7 -9l2 -3l-6 -9l-7 -9l-1 -1l-14 -5l-10 -10l-14 -8l-10 -7l4 -10l29 -44l-1 -17l-3 -11l-4 -3l-6 -2l-7 1l-4 3l-20 23l-13 7l-5 -10l-11 -32 l-4 -7l-4 -3l-4 -1l-5 2l-6 7l-8 24v1l13 36l1 1l-1 2l-1 1l-5 1l-17 -4l-20 -8l-25 -17h-2l-4 1l-5 4l-2 9l2 9l5 8l2 2l23 9l18 13l17 4l6 5l2 2l1 4l-1 5l-8 13l-20 28l-1 10l1 6l3 3l4 1l4 -1l8 -4l14 -13l17 -14l5 -5z" />
<glyph unicode="+" d="M428 252h-159v-181h-60v181h-158v60h158v181h60v-181h159v-60z" />
<glyph unicode="," horiz-adv-x="249" d="M40 -1l6 16l21 26l3 10l-7 7l-9 18l-4 24l1 4l5 7l7 12l19 23l11 7l9 2l10 -3l23 -25l13 -20l1 -3l-1 -4l-10 -15l-11 -28l-32 -44l-20 -20l-4 -3l-7 -2h-4l-11 6z" />
<glyph unicode="-" horiz-adv-x="351" d="M206 219l11 -3l10 3l11 -1l15 -2l16 -6l13 3h1l9 -3l4 -3l1 -14l-2 -13l-19 -16l-15 -10l-20 1l-22 -2l-24 9l-19 -3l-22 3l-19 -5l-25 5l-21 -4l-15 10h-12l-6 7l-2 4l-1 7l1 5l5 8l8 7l10 2l29 5l15 -2h1l16 3l31 2h10l17 1z" />
<glyph unicode="." horiz-adv-x="238" d="M40 97l7 20l6 16l1 2l13 9l9 8l4 2h1l15 -7l12 -8l15 -23l13 -13l2 -4v-4l-5 -17l-20 -25l-9 -8l-11 -3l-9 3l-12 7l-9 9l-18 28z" />
<glyph unicode="/" horiz-adv-x="408" d="M144 256l9 7l8 14l6 16l11 15l6 12l15 17l30 44l7 10l7 3l-1 13l10 10l13 22l21 26l4 10h1l8 1l12 20l4 12l17 25l21 22l9 7l4 17l25 28l33 38l12 10l47 68l19 14l5 5l15 8l14 7h1l8 -3l7 -8l4 -20l-2 -21l-10 -29l-6 -12l-10 -26l-10 -2l-17 -8l-12 -10l-34 -41l-30 -31 l-25 -33l-22 -17l-23 -33l-11 -12l-8 -17l-13 -7l-8 -7l-8 -13l-5 -15l-4 -11h-10l-3 -18l-8 -7l-3 -17l-9 -2l-5 -4l-2 -3l-9 -19l-13 -15l-11 -19l-11 -12l-5 -10l-11 -7v-12l-2 -13l-4 -8l-14 -19l-26 -49l-8 -13l-8 -17l-6 -25l-5 -16l2 -15l-1 -14l10 -44v-14l-5 -28 l-13 -13l-12 -4l-14 3l-20 5l-9 8l-3 5l-5 16l-7 15l-2 16l-1 14l1 5l3 17l1 11l14 35l4 14l17 33l15 36l25 36l9 19l8 15z" />
<glyph unicode="0" horiz-adv-x="478" d="M28 289l-3 3v7l4 9l11 23l2 2l4 1h11l2 3h-11l4 17l4 7l4 7l7 5l12 4v3l-5 -1l-4 4l3 11l5 13l4 4l6 5l21 26l15 8l8 9l-6 3l13 21l5 5l9 8l18 20l9 5l5 9l7 10l34 31l46 32l9 8l17 7l22 19l11 6l8 2l12 -2l9 -4l-1 -8l-4 -4l-7 -6l-12 -5l-5 -5l-5 -11l13 3l16 3h14 l18 -1l10 -5l11 -3l16 -16l20 -19l15 -29l10 -30l9 -18v-2l-2 -10v-11l-3 -7l1 -17l-4 -14v-17l-8 -20l-5 -10l2 -13l-2 -4l-8 -1l-3 -2l-1 -1l-1 -20l-1 -7l-3 -6l-6 -8l-4 -22l-7 -9l-11 -22l-8 -10l-12 -10l-3 -10l-4 -8l-16 -7l-3 -14l-22 -25l-8 -13l-15 -16l-15 -18 l-9 -7l-8 -5l-2 -1l-13 -2h-1l-10 -11l-10 -10l-14 -8l-13 -5l-38 -16l-18 -4l-11 1l-7 -7l-6 -1h-4l-15 7l-9 1l-9 -4h-2l-18 7l-22 15l-58 63l-6 12l-3 43v7l1 17l5 23l8 13v10l2 6l3 4zM65 117l-6 -9l7 2l9 -4l11 -1l7 -2l10 2h8l26 12l14 5l25 15l13 5l10 8l8 1l5 10 l16 8l2 8l7 8l7 8l14 9l8 11l58 60l16 21l7 14l10 4l8 23l15 17l-4 10l10 10l4 9l7 15v8l4 7l5 8l1 11l6 26l8 18l-1 14l5 19v3l-2 9l-6 11l-9 27l-12 5l-10 2h-1l-25 -10l-37 -12l-33 -22l-10 -6l-3 4l-5 13l-9 -6l-11 -8l-21 -18l-14 -19l-33 -37l-4 -16l-13 -2l-4 -11 l-6 -17l-23 -26l-5 -26l-15 -17l-3 -14l-11 -20l-12 -14l-8 -14l-2 -14l-22 -81l-3 -26l3 -16zM321 599l-4 3l-3 2h-2l-2 -1l-2 -1v-2v-2l2 -1l3 -1h1z" />
<glyph unicode="1" horiz-adv-x="223" d="M180 535l-11 -1l-12 3l-6 6l-3 13l3 13l4 5l11 6l27 20l19 10l11 14l13 3l19 8l8 1l5 -1l11 -8l19 -18l3 -5l2 -7l-1 -6l-16 -20l-16 -17l-19 -34l-14 -26l-15 -19l-21 -43l-20 -20l-9 -27l-9 -19l-9 -28l-10 -13l-11 -24l-2 -11l-8 -12l-2 -9l-4 -24l-8 -18l-5 -9 l-1 -13l-6 -14l-4 -14l-8 -4v-15l-6 -31l-5 -20l1 -29l-4 -11l-2 -12l-3 -2l-6 -1l-17 5l-16 18l-13 32l-7 44v8l5 18l1 18l6 10l29 76l16 33l6 19l23 45l15 32l15 22l13 35l40 57z" />
<glyph unicode="2" horiz-adv-x="466" d="M437 539l-10 3l-7 1l-16 8h-25l-25 3l-18 -3l-16 3l-31 -12l-24 -4l-24 -13l-13 -6l-7 -5l-5 -1l-4 1l-11 2l-14 -8h-1l-4 1l-6 7l-8 28l-1 6l5 15l12 15l14 11l2 1l24 1l18 5l18 -1l20 8h16l32 4l42 -5l42 -4l11 -4l13 -10l8 -9l15 -23l15 -21l6 -22l-2 -10l-10 -16 l-9 -16l-16 -21l-16 -10l-5 -1h-19l-1 -1l-17 -13l-23 -14l-19 -12l-9 -6l-13 -4l-16 -16h-15l-5 -2l-4 -3l-42 -35l-20 -6l-15 -13l-14 -5l-9 -12l-10 -4l-15 -12l-28 -28l-12 -4l-6 -7l-11 -7l-13 -14l-10 -8l-7 -14l-7 -9l-5 -4l-9 -3v-11l4 -11l3 -3l3 -1l13 1l20 3l8 3 l10 3l16 -2l40 10h16l23 9h15l16 6h17l22 3l12 1l11 -1l15 -2l35 2l20 -5l10 -3l4 -11l15 -29l-2 -15l-2 -18l-12 -10l-6 -2l-7 2l-7 5l-7 11l-6 -3l-10 3l-14 -2l-12 8l-17 -3l-12 2l-27 -7l-31 -3l-29 -7h-23l-21 -8l-15 3l-21 -5h-14l-17 -3l-19 -4h-2l-14 10l-4 -11 l-5 -4l-6 -1h-6l-15 2l-16 10l-10 2l-7 14l-11 24l-2 15l5 33l6 20l3 4l12 13l9 15l12 12l6 8l53 47l12 14l17 10l20 16l15 13l21 15l39 26l16 8l11 9l17 4l9 6l17 9l12 7l12 4l40 22l25 9l17 13l24 10l10 9l28 17l3 7z" />
<glyph unicode="3" horiz-adv-x="438" d="M255 235l7 7l16 4l4 7l5 5l6 -5l6 9l22 17l6 7l17 9l9 7l12 20l1 1v1l-2 12l3 13l-10 10l-8 10l-11 6l-10 5l-12 -4l-13 6l-20 -1h-11l-9 -2l-13 2l-9 -4l-38 -1l-51 -7h-1l-22 9l-10 6l-6 8l-15 29l-1 7l1 5l7 13h13l24 10l24 4l27 7l33 13l24 9l12 12l12 1l21 6l16 7 l37 17l10 6l-9 3l-22 -4l-10 3l-11 -6l-7 5l-13 -7l-6 3l-9 -2l-11 3l-11 3l-8 -7l-4 -2h-2l-11 1h-7l-9 4h-3l-17 -4l-24 -5h-28l-21 -7h-4l-5 1l-14 10l-7 5l-9 11l-8 11l-2 10l3 11l9 8l4 2h1l21 -2l51 -1l10 -8l21 3l9 7l4 -5h38l47 1h2l31 -2l27 3l11 -1h12l7 -3l11 2 l22 -5l17 -17l9 -17l5 -17v-1l-4 -13l-3 -9l-19 -11l-7 -5l-25 -12l-21 -13l-8 -2l-14 -5l-13 -1l-12 -8h-14l-3 -5l-7 -6l17 -6l31 -10l14 -14l19 -13l6 -11l11 -8l3 -5l1 -4l3 -20l2 -12l-4 -15l3 -9l3 -9l-5 -14l-2 -15l-9 -10l-7 -16l-10 -8l-8 -16l-15 -10l-14 -19 l-16 -3l-12 -17l-34 -6l-6 -11l-22 -10l-21 -16l-8 -1l-6 1l-9 6l-10 -5l-18 -17h-13l-17 -6l-11 -2l-17 -8l-11 6h-6l-8 -5l-27 -17l-4 -1h-50l-10 -4l-15 6l-11 1l-6 10l-6 10l-3 10l-16 36l-1 5l2 7l5 5l5 1h1l12 -2l11 6h9l15 2l12 -5h2l23 2l14 2l10 4l11 7l42 4l56 14 l27 9l34 17l20 7z" />
<glyph unicode="4" horiz-adv-x="507" d="M89 417l1 13l4 11l3 3l15 11l28 27l11 1l5 10l7 7l5 2l10 -3l2 4l-2 11l11 12l11 13l10 5l13 15l16 10l21 24l12 5l11 6l3 4l3 24l15 -5l2 3h4l4 -11l1 -3l-2 -8l-3 -4l-10 -3l-4 -10l-7 -25l-20 -18l-6 -14l-6 -12l-9 1l-4 -8l-3 -10l-1 -10l-16 -3l-1 -1l-2 -6l-2 -10 l-11 -4l-6 -17l-8 -6l-11 -12l-14 -10l-26 -38l-8 -9l-2 -11l10 -3l36 -9l23 -9l46 -6h7l16 1l5 9l16 29l7 9l10 12l2 12l2 5l2 2l9 4l8 13l-1 8l8 10l10 22l8 12l4 18l8 9l5 8l17 12l3 20l5 5l2 10l2 5l5 3l8 4l3 5l5 2l-3 15l7 21l5 19l10 13l11 -4l14 -13l10 -32l1 -21 l-5 -9l-14 -21l-13 -32l-9 -5l-2 -11l-9 -26l-7 -12l-8 -9l-7 -21l-16 -4l-3 -13l-1 -11l-5 -6l-3 -9l-10 -5l-3 -4l-1 -1l-2 -17l-6 -14v-10l13 1l9 1l16 9l28 9l11 3l8 -6l14 -3l13 -10l16 -9l3 -5l1 -5l-1 -6l-4 -6l-5 -3l-13 -6l-11 -6l-41 -13l-20 -11l-13 7l-10 -6 l-8 -2h-12l-12 -2l-11 1l-11 -14l-13 -32l-9 -15l-2 -17l-5 -11l-3 -14l-5 -9l-7 2l-1 -20l-6 -4v-11l-7 -21l-2 -17l-3 -13l1 -34l-2 -18l-2 -6l-1 -1l-8 -4l-1 -5l-1 -2l-2 -1l-1 -1l-1 1l-10 5l-17 9l-16 20l-28 29l-3 8l-1 7l3 14l8 11l3 13l9 15l5 13l6 5l8 7l-4 10v1 l3 14l9 17l22 31l6 23l10 27l-2 4l-2 3l-6 1l-9 -1l-15 -2l-7 1l-3 2l-18 11l-19 1l-11 4l-7 7l-37 -8l-5 8l-10 -3l-17 -2l-7 1l-13 6l-15 9l-11 12l-6 20l2 8l3 4l11 6l35 31z" />
<glyph unicode="5" horiz-adv-x="429" d="M-66 139l12 1l27 -14l9 -1l11 -3l11 5l16 -5l12 5l10 -2l10 7l9 -2l15 3l18 1l11 7l19 3l26 13l10 2l5 8l15 8l10 10l22 15l35 23l13 11l12 4l14 15l10 4l3 11l8 8l14 22l9 17l3 10l4 7l2 16l4 18l-2 9l-2 15l-4 6l-10 7l-35 7l-26 -2l-13 -5l-11 -2l-10 -6l-17 1l-9 -6 l-11 -3l-3 7l-9 -7l-14 -8l-14 -11l-13 -4l-30 -21l-11 -3l-6 2l-15 14l-20 25l-6 19l1 7l7 9h9l1 11l10 2l8 7l5 3l14 27l12 10l11 14l7 8l8 17l18 21l5 24l10 7l3 15l11 11l11 16l7 4l3 1h3l4 -8l4 -10l-1 -5l11 -1l16 7l10 2l4 9l23 1l25 6l28 11h1l11 -6l11 2l25 9l21 4 l8 5l36 9l11 7l11 -4l8 6l8 3l7 -2l6 -3l2 -4l1 -30l2 -24v-1l-2 -9l-6 -6l-6 -2h-1l-17 4l-16 -6l-26 -8l-37 -10h-16l-18 -7l-19 -1l-49 -20l-19 -3l-13 -4h-11l-17 -6l-20 3l-13 -10l-11 -3l-10 -13l-11 3l1 -11l-2 -8l-6 -9l-8 -8l-1 -6v-1v-7l12 1l6 1l8 7l11 -1l12 -1 h2l9 9l10 -2l9 -2l50 1l9 -4l18 -4l11 -9l14 -3l14 -10l12 -16l11 -20l10 -41l9 -29l1 -13l-3 -18l-6 -13l-9 -9l-1 -11l-1 -9l-22 -29l-8 -19l-3 -3l-2 -1l-15 2l-7 -16l-6 -14l-13 -5l-10 -17l-13 -2l-3 -2l-8 -10l-5 -8h-4l-6 6l-12 -7l-9 -9l-7 -6l-7 -1h-10l-19 -18 l-7 -1l-11 2l-7 -10l-13 -5l-17 -15l-5 -1h-1h-1l-8 6l-16 -11h-11l-10 -7l-15 6l-13 -7l-19 3l-13 -2l-9 4h-8l-5 5l-11 -3l-2 1l-15 15l-16 20l-16 26l-2 8v1z" />
<glyph unicode="6" horiz-adv-x="447" d="M71 355l5 11l10 20l20 23l7 12l6 6l8 3l10 3l-1 15l3 8l4 4l16 12l22 21l11 8l12 16l18 13l7 13l18 11l11 13l24 14l5 11l30 8l3 9l7 5l9 9l28 12l27 17l12 2l11 3l11 -5l9 -9l11 -15l2 -11l-3 -10l-7 -7l-4 -2l-29 -2l-6 -4l-6 -2l-15 -17l-5 -2h-2h-14l-11 -15l-19 -11 l-15 -19l-16 -7l-10 -11l-13 -4l-9 -13l-13 -8l-6 -8l-9 -10l-9 -23l-13 -7l-10 -20l-15 -11l-11 -16l-5 -1h-2l-10 6v-17l-7 -6l-4 -10l-7 -10l16 1l10 10l21 11l47 10l20 9l22 2l26 4l11 1l4 -6l23 3l3 -6l6 2l15 -7l5 -6l30 -39l8 -27l2 -16v-5l-6 -14l-1 -14l-3 -6 l-3 -3l-10 -1l-5 -10l-5 -10l-5 -5l-8 -10l-14 -8l-12 -22l-19 -21l-22 -19l-17 -15l-9 -4l-11 -3l2 -7v-1l-8 -7l-5 -3l-12 1l-3 -8l-11 -5l-29 -14l-9 -6l-12 -2l-24 -7h-3l-7 1l-12 4l-16 -4l-12 5l-18 3l-12 6l-9 3l-12 5l-7 9l-13 8l-10 11l-11 14l-2 4l-4 18l-9 13 l-3 19l-3 15v3l5 25l17 34l2 12l4 10l17 23l10 14l7 7l4 10l4 8l4 4zM171 156h12l11 12l10 3l21 15l10 12l32 25l13 16l9 6l9 4l5 3l1 3l2 8l11 9l10 13l9 9l4 9l9 7l1 10l6 8l3 8l-1 4l-2 2l-4 2l-11 3l-10 -3l-11 4l-12 -3l-13 1l-13 -6l-9 -1l-9 -5l-10 3l-12 -7l-10 3 l-7 -8l-6 -3h-3h-21l-21 -18l-16 -4l-12 -11l-7 -8l-9 5h-1l-4 -1l-2 -1l-19 -23l-11 -8l-7 -8l-6 -9l-7 3l-5 -11l-9 -17l-13 -34l-6 -10l-3 -12l-4 -11l-1 -4l3 -9l11 -10l5 -2h2l36 5l21 -2l16 5l12 8l16 7l8 6z" />
<glyph unicode="7" horiz-adv-x="411" d="M129 308l9 5l8 5l2 2l7 13l13 14l45 50l43 39l22 21l22 14l7 14l29 18l25 21l24 14l15 19l23 19l-1 1l-1 1l-1 1l-12 3l-10 5h-20h-8l-14 -8l-24 9l-17 -8l-15 6l-17 -6l-23 -1l-12 -4l-18 -1l-17 -7l-29 1l-42 -10h-12l-12 -2l-24 2l-10 2l-1 5l-5 4l-1 4l-11 31v2l2 17 l4 10l9 8l12 4l6 -1l12 -3l14 -3l35 -14l16 2l17 -1l32 3l12 1l5 4l13 -2h16l28 3l2 1l4 6l19 -2l52 -1l41 -5l10 2l11 -4l21 -12l14 -20l4 -13v-18l1 -14l-4 -13l-3 -9l-3 -5l-6 -5l-14 -9l-9 -12l-10 -4l-32 -33l-21 -10l-20 -22l-13 -1l-10 -20l-15 -5l-18 -22l-11 -6 l-14 -13l-16 -20l-35 -35l-9 -17l-11 -1l-8 -21l-13 -4l-11 -23l-29 -42l-22 -47l-10 -10l-4 -7l-1 -8v-5l4 -23l1 -5l-2 -9l-3 -4l-5 -1l-3 1l-2 1l-12 14l-15 13l-11 16l-5 22l1 3l2 17l1 17l15 24l1 15l12 18l17 24l16 20l5 8z" />
<glyph unicode="8" horiz-adv-x="434" d="M-8 186l-2 10v1l3 19l9 19l12 17l7 14l25 29l5 11l8 8l1 8l12 4l13 20l11 3l11 17l80 65l21 14l18 7l8 10l8 6l-5 8l-27 2l-18 4l-29 5l-18 6h-7l-10 4l-6 12l-11 7l-5 6l-5 23l2 16l4 5l16 15l29 20l25 11l11 9l11 1l22 11l15 2l25 13l37 -3l24 14l11 -2l20 4l26 1l14 1 l8 -4l15 -1l10 -5l9 -2l16 -8l10 -13l4 -14l-3 -12l-6 -10l-8 -7l-11 -4l-5 3l-3 12l-10 11l-8 10l-23 -3l-8 8l-9 -5l-12 2l-18 -6l-18 1l-28 -18l-19 6l-14 -8l-18 -8l-12 -11l-8 7l-7 -9l-6 -9l-2 -2h-2h-2l-6 7l-9 -6l-15 -7l-4 -5l-5 -11l11 -2l28 -8l15 -11l28 -9 l28 -17l13 -2l14 3l10 6l9 10l29 12l24 16l28 8l19 12l13 4l8 9l3 1h4l14 -2l16 -6l2 -3l12 -18l12 -15l1 -7l-2 -7l-6 -6l-8 -3l-2 1l-11 3l-7 -9l-21 -1l-22 -13l-11 -3l-11 -8l-9 -3l-10 -7h-13l-10 -7l-16 -10l-7 -9l6 -12l11 -13l-1 -13l8 -6l6 -6v-2l3 -16l8 -19 l-1 -10l3 -26l-6 -17l-1 -20l-4 -10v-15l-7 -6l-8 -24l-21 -28l-6 -16l-8 -5l-5 -13l-9 -2l-11 2l-4 -6l-3 -15l-4 -5l-10 1l-5 -10l-4 -9l-4 -5l-11 1l-3 -10l-3 -7l-1 -1l-16 -1l-7 -5l-8 -3l-11 -13l-17 -8l-25 -19l-18 1l-26 -6l-9 1h-12l-9 5h-11l-22 10l-10 8l-15 11 l-5 10l-7 6l-18 28l-4 8l-5 13v11l-4 17v2v4zM156 141l10 1l15 10l19 7l7 8l22 16l11 14l25 16l15 14l11 5l-1 11l1 7l3 4l16 16l6 10l5 5l7 16l7 13l3 22l4 13l-1 15l-3 22l-5 8l-6 11l-8 9l-11 11l-2 1l-1 -1l-4 -2l-10 -12l-9 -2l-12 -8l-11 -6l-12 -12l-15 -5l-16 -16 l-13 -10l-23 -22l-12 -4l-8 -9l-11 -9l-20 -24l-14 -11l-6 -15l-14 -3l-5 -11l-10 -14l-5 -16l-10 -7l-10 -22l-9 -10l-1 -12l-10 -26l-2 -11l3 -12l6 -6l6 -2l12 1h13l26 11l43 13z" />
<glyph unicode="9" horiz-adv-x="417" d="M97 470l5 11l3 7l17 14l6 9l6 4l6 6l9 3l32 32l17 9l12 11l10 6l12 16l36 23l34 24l26 11l10 9l50 18l21 6h1l12 -5l10 -7l2 -2l1 -5l-6 -28l-2 -3l-7 -7l-7 -3l-3 1l-2 1l-12 8l-17 -5l-14 -1l-15 -10l-12 -8l-17 -10l-15 -12l-16 -7l-9 -11l-10 -4l-8 -6l-11 -9l-6 -10 l-12 -2l-6 -15l-10 -10l-9 -7l-4 -3h-14l-1 -9l-2 -5l-6 -6l-14 -10l-5 -10l-7 -6l-7 -15l-10 -8l-15 -18l-17 -19l-10 -21l-3 -11l11 1l11 5l9 8l14 7l6 9l12 2l70 52l12 5l2 9l5 4l10 2l16 16l10 8l11 11l8 4l7 9l17 11l3 10l10 2l7 9l6 8h11l5 3l4 4l4 10l9 3l3 4l6 3 l7 6l17 14l16 20l20 15l17 18l17 10l14 10l6 1l17 -5l13 -13l7 -27l-2 -18l-3 -5l-19 -25l-9 -15l-28 -23l-5 -21l-11 -10l-15 -26l-8 -7l-12 -20l-22 -22l-10 -15l-9 -9l-1 -15l-4 -11l-7 -8l-11 -6l-10 -3l1 -15l-11 -20l-15 -31l-26 -35l-5 -18l-3 -12l-10 -5l-4 -4 l-4 -9l-4 -16l-16 -40l-6 -21l-10 -28v-1l3 -21l3 -17l4 -10l8 -11l-1 -3l-12 -5l-13 -6l-9 2l-28 9l-13 7l-13 20l-7 29l2 9l11 37l4 17l8 10l11 28l14 19l8 6l1 22l8 10l4 12l14 19l3 12l12 13l7 11l5 6l8 9l1 15l9 4l8 12l-2 7l5 5l12 5l3 10l7 12l8 7l14 18l5 12l36 45 l11 18l-8 -8l-15 -10l-19 -16l-9 -14l-6 1l-3 -1l-3 -2l-9 -12l-9 -8l-11 -16l-17 -12l-7 -8l-7 -6l-14 -6l-11 -3l-4 -9l-4 -5l-14 -5l-11 -14h-17l-6 -10l-6 -8l-6 -5l-10 -8l-15 1l-6 -3l-4 -4l-16 -22l-2 -2l-6 -1h-1l-10 3l-9 -11h-2h-3l-14 8l-28 18l-9 7l-12 17l-4 7 l2 25l1 9l3 8l35 45l6 13z" />
<glyph unicode=":" horiz-adv-x="238" d="M40 97l7 20l6 16l1 2l13 9l9 8l4 2h1l15 -7l12 -8l15 -23l13 -13l2 -4v-4l-5 -17l-20 -25l-9 -8l-11 -3l-9 3l-12 7l-9 9l-18 28zM72 284l8 20l5 15l1 1l13 10l10 9l6 1h3l10 -7l14 -8l3 -3l8 -15l5 -8l11 -10l2 -3l1 -5l-6 -16l-29 -34l-11 -3l-14 4l-15 14l-19 29z" />
<glyph unicode=";" horiz-adv-x="248" d="M40 -1l6 16l21 26l3 10l-7 7l-9 18l-4 24l1 4l5 7l7 12l19 23l11 7l9 1l10 -2l23 -25l13 -20l1 -3l-1 -4l-10 -15l-11 -28l-32 -44l-20 -20l-4 -3l-7 -2h-4l-11 6zM118 338l8 3l27 -17l6 -9l9 -15l12 -12l2 -8l-7 -19l-28 -30l-11 -3l-12 4l-23 21l-14 23l-4 8v2l2 8l5 9 l4 13l4 6l2 2l10 6z" />
<glyph unicode="&#x3c;" d="M428 69l-377 184v58l377 183v-67l-305 -145l305 -146v-67z" />
<glyph unicode="=" d="M428 343h-377v60h377v-60zM428 161h-377v60h377v-60z" />
<glyph unicode="&#x3e;" d="M428 253l-377 -184v67l305 145l-305 146v67l377 -184v-57z" />
<glyph unicode="?" horiz-adv-x="597" d="M167 333l10 10l10 6l19 16l10 3l10 8l29 17l15 9l61 28l37 18l27 11l12 9l12 1l20 13l11 -1h1l25 9l19 8l12 8l15 5l16 5l16 9l22 5l18 10l23 15l5 16l-13 12l-6 6l-3 3l-13 -1h-11h-1l-17 5l-14 -4l-9 -1l-6 1l-22 6l-16 -6l-31 -1l-22 -9l-15 2l-15 -5l-49 -6l-24 -7 l-19 5l-16 -9l-15 -4l-15 -13l-11 -2l-5 -18l-6 -8l-11 -7l-8 -1l-12 2l-10 2l-7 5l-4 7l-1 6l5 26l4 16l5 7l15 10l43 12l14 -3l5 7l13 1l15 5l8 -2l13 2l11 -2l8 7l12 5l6 -5l11 4l18 4l19 6h22l14 1h7l10 -1l5 -5l17 4l19 -3l13 1l16 -2l11 2l15 -1l4 -5h11l11 -4l13 3 l8 -6l7 -2l9 -3l13 -2l9 -7l19 -22l3 -13l2 -11h6v-25l-4 -20l-3 -7l-2 -2l-9 -7l-10 -13l-6 -4l-2 -1l-16 -3l-32 -24l-5 -1l-8 2l-12 5l-6 -8l-9 -8l-5 -3l-14 -5l-16 -15l-16 -1l-18 -8l-20 -3l-14 -8l-17 -6l-15 2l-10 -10l-15 -11l-16 -12l-9 -4l-4 -1h-19l-13 -12 l-12 -7l-16 -11h-11l-24 -15l-11 -2l-11 -6l-12 -6l-11 -14l-7 -10l-2 -2l-1 -11l1 -27l-3 -22l-8 -10l-10 -7l-13 10l-10 34l-12 12l-10 14l-9 16v3l6 25zM207 48l-10 2l-20 3l-1 2l-9 14l-7 8l-2 10l-5 13v2v5l3 5l7 8l5 10l10 11l16 16l5 4l7 1l8 -2l14 -10l13 -15l4 -12 l7 -17l-6 -10l-10 -19l-21 -21z" />
<glyph unicode="A" horiz-adv-x="594" d="M82 164l-6 13l3 7l3 7l4 1l7 -6l2 1l-3 6l-8 6l-2 13l3 13l7 29l7 13l13 16l6 31l10 23l20 29l5 14l12 16l8 20l18 20l3 9l15 20l24 33l11 8l4 10l12 11l8 10l10 6l8 11l21 15l8 8l12 6l4 9l18 16l12 12l17 9l5 10l13 5l9 10l16 4l11 9l12 7l29 13l34 6l19 -3l16 -6l5 -7 l10 -15l2 -14l-1 -11l-7 -43l-1 -11l-6 -14l-4 -21l-7 -9l-7 -5l-8 -1l-11 3l-8 8l-4 16l2 10l2 3l19 18l9 13l7 28l-1 5l-1 2l-6 4l-10 -2l-10 2l-17 -8l-19 -7l-14 -14l-25 -15l-13 -10l-7 -9l-14 -2l-5 -11l-14 -8l-7 -12l-7 -4l-12 -14l-10 -8h-5l-5 -11l-7 -9l-18 -9 l1 -12l-1 -5l-2 -1l-21 -19l-3 -14l-8 -10l-10 -17l-8 -8l-5 -16l-11 -8l-7 -14l-10 -7l-1 -5l2 -11v-1l-1 -2l-4 -5l-9 -6l-5 -13l-4 -6l-12 -13l1 -10l-9 -23l-11 -19l-10 -5l2 -16l-7 -20l2 -9l-8 -6l1 -11l-9 -36l5 -17l-4 -9l2 -11l5 -22l4 -3l7 -1l10 1l10 2l11 8 l28 22l8 9l6 4l8 5l6 10l23 26l21 30l7 6l8 17l9 8l11 12l7 12l16 17l9 13l8 12l10 7l5 11l13 6l-1 14l2 3l3 4l10 5l1 14l18 12l8 22l20 24l1 12l12 9v10l9 11l2 5l8 7l2 10l16 22l12 14l6 3h5l15 -4l14 -7l8 -11l3 -11l-1 -2l-10 -28l-5 -24l-6 -15l-6 -16l2 -11l-8 -16 l-5 -25l-2 -5l-2 -2l-10 -3l-3 -12l-1 -31l-8 -11l-11 -20l-6 -31l-8 -10l2 -9l-8 -20l2 -14l-4 -11l1 -23l-3 -12v-5l2 -2l10 5l11 6l28 24l29 18l8 8l32 29l12 8l8 8l5 1l5 -1l2 -2l1 -2l-4 -26l-4 -22l-7 -9l-7 -7l-8 -4l-8 -11l-13 -4l-4 -7l-10 -4l-10 -16l-13 -3 l-20 -16l-11 -8l-30 -5l-12 -1l-6 2l-3 7h-11l-5 7l-8 5l-6 11l-8 11l-6 28l-2 11l2 13l2 22l5 17l1 19l14 53v19l-5 -10l-15 -20l-17 -15l-5 -9l4 -7l-7 -10l-12 -16l-6 -13l-13 -1l-3 -3l1 -12l-13 -12l-2 -7l-6 -4l1 -10l-8 -7l-5 -13l-3 -3l-2 -2h-11l1 -17l-10 -7 l-17 -24l-25 -26l-7 -9l-10 -6l-11 -12l-9 -3l-9 -6l-23 -4l-14 -5l-3 -1l-14 5l-20 10l-11 2l-7 10l-17 14l-5 8l-10 28l-6 30l1 7l3 12l-1 3l-3 5l-1 1l1 2l1 3z" />
<glyph unicode="B" horiz-adv-x="585" d="M105 591l11 8l24 8l11 2l21 5h21l20 6h5h3l11 -3l8 8l16 5l35 5h15l22 3h40l52 1l34 -5l22 -3l10 -3l10 -3l9 -6l34 -21l13 -15l6 -24l-4 -18l-17 -24l-41 -31l-47 -27l-35 -13l-16 -10l16 -5l18 -3l33 -10l50 -19l27 -16l13 -8l6 -11l8 -2l4 -2l2 -4l6 -14l9 -12l4 -14 l4 -12v-11l-4 -23l-1 -10l-6 -6l-8 -17l-27 -31l-5 -3l-9 -3l-10 -10l-19 -12l-10 -11l-10 1l-7 -8l-10 -9l-13 -4l-11 -2l-2 -5l-8 -6l-8 -1l-18 -13l-16 1l-3 -1l-8 -7l-7 -6l-18 2l-8 -8h-9l-22 -12l-9 -2l-6 -5l-15 -2l-17 -7l-13 2l-10 -5l-9 -4l-57 -11l-26 -7h-9 l-10 2l-8 6l-7 -2l-10 -7l-8 1l-12 -1l-13 9l-11 -2h-1l-6 1l-4 3l-6 13l-7 -2l-2 1l-4 4l-5 17l1 6l10 14l16 15l62 44l26 15l37 18l35 19l16 1l1 1l3 9l15 4l62 32l45 17l21 9l12 3l16 6h4l14 -4l15 -15l4 -12l-1 -6l-9 -16l-6 -8l-15 -3l-5 5l-15 -1h-10h-5l-7 3l-11 -4 l-14 -1l-12 -7l-52 -17l-44 -20l-20 -6l-24 -16l-62 -36l-9 -7l-4 -6v-3v-1l3 -3l9 -3l44 -2h16l17 1l17 7l39 7l8 7h12l7 1l4 2l7 6l19 2l29 13l24 7l17 12l11 2l25 17l21 6l12 15l14 4l13 11l13 8l4 6l25 21l8 8l5 -1l4 1l-1 10l9 5l-4 11l2 8l-10 15l-1 7l-11 3l-7 9 l-3 3l-14 7l-18 7l-20 7l-23 2l-45 9l-25 -1l-39 6l-19 -2l-10 2l-10 1l-17 -2l-11 -1l-12 3l-5 4l-1 4v1l3 12l2 11l8 10l15 16l8 4l25 12l40 12l44 21l15 6l32 20l29 19l8 7l9 5l2 3l1 9l-1 10l-5 5l-11 6l-20 7l-39 5l-24 3l-12 1l-10 -1l-24 -5l-1 1l-9 6l-4 -2l-10 -8 l-21 3l-5 -5v-4l5 -8l5 -9l-2 -11v-14l-6 -9l-3 -11l-7 -17l-12 -27l-12 -28l-6 -9l-5 -18l-18 -36l-7 -20l-8 -12l-20 -52l-10 -14l-9 -37l-16 -37l-5 -11l-9 1l-9 4l-6 5l-17 28l-7 8l-3 9l-1 4l13 34l9 22l13 25l10 19l2 9l9 12v9l12 11l2 12l7 7l2 12l7 3l1 10l3 8l8 5 l9 6l-6 4l1 11l10 10l-3 13l7 14l10 21l10 10l-2 13l8 8l7 4l5 9l-12 4l-9 -2l-22 -3l-14 -6l-8 1l-12 -5l-47 -5l-10 -4h-9l-8 -4l-11 -3l-8 3l-10 -9l-11 -6l-15 -3l-16 -12l-5 -11l-18 -13l-9 -6l-9 4l-10 9l-3 10l5 18l18 23l20 11l23 6l33 11z" />
<glyph unicode="C" horiz-adv-x="512" d="M74 188l4 10l7 25l12 39l14 33l3 9l5 7l9 24l8 6l6 11l6 1l-4 17l13 15l4 12l5 7l7 9l15 5l6 -9l6 6l-9 5l-7 14l8 11l13 6l-5 4v5l9 9l5 12l10 6l2 -2l5 1l2 11l-1 11l16 18l6 12l17 12l5 8l12 10l14 8l3 -3l9 -2l-4 -4v-3l5 3l2 3v3v3l-7 7l7 12l15 11l17 14l16 9l8 8 l12 -1l3 -4l3 1l-3 9l14 10l25 9l11 8l25 7l13 1l14 6l12 -7l9 3l11 -10l13 -10l6 -12l4 -14v-2l-2 -22l1 -17l-7 -15l-5 -21l-7 -15l-6 -20l-13 -25l-53 -80l-5 -7l-12 -6l2 -10l-3 -9l-10 -10l-14 -10l-11 -2l-12 3l-6 4l-12 15l-2 8l5 15l8 12l31 23l8 7h8l4 7l1 11 l12 10l4 6l4 6l7 3l6 9l15 25l2 12l9 5l1 17l8 6l1 10l2 12l7 18v12l1 8l-2 6l-5 5l-9 2l-5 -1l-28 -13l-12 -4l-7 4l-3 -2l-2 -8l-8 -2l-9 -9h-8l-8 -12l-10 -6l-8 -12h-8l-9 -17h-10l-3 -13l-13 -13l-7 -8l-10 -2l-1 -13l-10 -6l-1 -6l-7 -7l-5 -5l-11 -5l3 -6l-5 -9 l-2 -4l-1 -1l-5 -2l-3 -15l-8 -12l-9 -12l-4 -11l-7 -11l-13 -5l2 -15l-8 -12l-6 -15l-11 -15l-1 -10l-7 -14l-10 -25l-11 -12l-3 -11l-2 -11l-9 -14l-4 -17l-10 -9l5 -1v-15l-9 -17l-7 -20l4 -9l-3 -31l2 -10l-5 -2v-6l8 -8l9 -13l4 -9h12l13 3l10 1l16 7l20 5l11 12l19 4 l16 19l21 12l12 11l10 4l7 9l7 5l7 6l23 21l7 11l8 7l9 -2l1 9l9 5l10 6l5 11l13 9l13 13l10 1l4 11l4 7h9l6 14l12 5l8 13l16 9l7 4l4 1l5 -1l7 -8l3 -9l-1 -6l-9 -8l-2 -11l-10 -8l-11 -10l-2 -10l-13 -7l-9 -14l-8 -9l-7 -1l-4 -12l-18 -14l-4 -13l-11 -2l-8 -9l-9 -11 l-6 -9h-9l-7 -9l-11 -3l-9 -14l-6 -5l-5 -7l-2 -1h-2h-2l-1 1l-2 7l-9 -7l4 -8l-11 -14l-6 -5l-6 -2l-11 -2l-5 -11l-10 -3l-15 -15h-13l-8 -7h-13l-6 -7l-8 -2l-6 -5l-4 -1l-3 1l-2 2v10l-4 -11l-2 -7l-2 -2l-4 -1l-2 1l-10 3l-15 -6l-35 11l-9 1l-7 3l-9 6l-3 9l-11 6 l-4 11l-8 9l-3 6l-4 10l-3 9l-4 8l-5 18l-4 38z" />
<glyph unicode="D" horiz-adv-x="630" d="M12 411l7 7l3 10l12 13l3 9l14 12l2 8l7 6l9 5l1 7l10 10l10 -1l9 10l12 5l18 18l14 2l11 13l11 3l7 4l26 12l17 10l10 1l12 7l7 1l14 5l10 1l17 6l11 3l10 4l15 1l11 5l25 2l30 7l27 -1l13 3l38 -6l36 -5l15 -8l10 -1l33 -20l7 -2l41 -35l38 -54l12 -39l5 -18v-21l2 -7 l-3 -22l1 -10l-7 -31l1 -10l-8 -9l1 -9l-7 -10l-13 -24l-5 -3v-6l-9 -8l-7 -10l-11 -12l-5 -3l-5 -10l-11 -12l-36 -29l-13 -6l-8 -11l-13 -9l-9 -8h-8l-3 -5l-14 -9h-6l-9 -9l-14 -6l-9 -5l-8 3l-6 -11l-6 -1l-10 -3h-10l-7 -7l-8 -4l-36 -7l-8 -7h-10l-23 -6l-16 4l1 -7 l-1 -3l-3 -2h-2h-1l-15 1h-8l-7 7l-7 -9l-8 -5l-7 -2l-13 -1l-29 -7l-12 1l-14 3l-2 -5l-25 -2l-10 2l-10 1l-15 1l-5 3l-8 1l-14 3l-15 16l-4 14l2 9l11 10l10 3h2l15 -3h10l1 14l9 21l3 13l5 5l9 9l2 10l12 28l8 7l2 12l12 11l3 13l6 3l1 14l14 8l-4 7l5 11l5 12l10 8 l-2 8l9 -1l2 9l-1 9l11 6l2 5l-14 2l-15 -7h-10l-11 2l-2 -7l-11 1l-7 3l-15 -11l-11 2l-8 -2l-17 -1l-7 -2l-7 1l-7 -1l-14 8l-10 -1l-15 7l-12 1l-12 12l-9 5l-3 4l-1 3l1 11l-2 10zM144 357l5 -1l12 13l8 2h5l10 -2l8 5l38 8l14 5l3 13l14 22l6 25l4 10l12 3l-5 17l8 5 l-5 9l-4 21l2 13l7 6l7 2l17 -3l8 -4l21 -22l10 -27l-2 -9l-16 -45l-3 -12h10l10 2l17 1l43 15l25 3l12 6l7 -5l6 9l22 12l8 9l13 8l15 10l11 2l8 -1l10 -4l3 -11l1 -7l-4 -14l-18 -18l-12 -9l-12 -5l-38 -11l-23 -4h-4l-1 1l-3 3l-9 -2l-4 -7l-11 5l-5 -6l-32 -10l-52 -9 l-11 -3l-8 -18l-7 -17l-18 -32l1 -7l-6 -9l-18 -28l-44 -94l-10 -18l-4 -12l-9 -19v-4l7 2l9 4h26l7 3l22 1l14 4l5 2l6 -1l7 8l7 -4l4 7l11 -1l15 3l37 16l22 6l21 14l16 6l9 7l10 2l18 16l13 5l18 13l12 5l12 16l18 12l6 10l9 8v10l9 3l3 16l9 3l-1 17l13 13l-1 26l4 5 l9 7l-7 5l4 17l-4 14l4 11l2 10l-7 4v13l1 10l-3 11l-5 14l-8 11l2 9l-9 10l-8 8l-8 10l-10 7l-8 7l-8 3l-28 14l-15 4l-16 7l-12 -1l-7 3l-10 -2l-24 4l-17 1l-25 -2l-47 -7l-44 -15l-13 1l-8 -8l-27 -9l-7 -6l-9 -3l-7 -5l-13 -2l-10 -11l-24 -13l-9 -8l-10 -4l-4 -5 l-14 -6l-4 -10l-11 -6l-5 -12l-19 -18l-12 -17l-6 -24l3 -11l9 -10l5 -3l15 -2l17 -3l27 6l5 -2l1 -1v-1z" />
<glyph unicode="E" horiz-adv-x="565" d="M67 104l4 15l-4 5v2v4l2 4l1 7l9 11l-5 5l5 11l4 16l10 8v15l1 5l1 2l14 12l30 42l18 11l4 9l12 8l17 18l6 6l8 3l12 2l6 11l8 6l8 5l19 8l13 9l19 10l8 8l10 1l15 6l3 7l-6 -4l-18 -3l-8 -6h-4h-6l-11 1l-7 4l-22 12l-2 2l-2 2l-2 12l1 5l2 21l1 10l10 13l13 26l16 17 l6 13l9 5l9 14l13 7l1 6l14 10l8 6l10 14l10 1l7 6l7 9l33 22l10 12l6 1l9 -3l20 19l4 2h3l10 -3v6l11 6l9 5l13 1l9 5l13 4l10 -1l5 3l8 3l5 -1l11 -6l11 2l15 -9l10 -2l7 -8l9 -14l1 -5l2 -26v-9v-1l-6 -14v-10l-8 -15l-5 -13l-8 -9l-3 -9l-3 -5l-3 -2l-8 -1h-5l-9 2 l-6 10l-6 18l1 6l8 10l14 9l10 2v9l8 5l2 10l1 9l-5 14l-4 9l-4 4l-3 1l-1 -1l-7 -2h-15l-12 -4l-11 -2l-18 -10l-16 -2l-4 -5l-4 -2l-14 -15l-35 -20l-20 -20l-21 -17l-16 -20l-17 -18l-12 -22l-8 -9l-8 -5l-16 -35l-7 -8l-1 -6l11 3l11 6l37 14l48 26l13 3l41 15l23 4 l19 -5l8 -8l3 -9l-1 -4l-2 -5l-6 -10l-9 -12l-18 -17l-6 -4l-5 -3l-3 -1l-7 1l-26 -6l-14 -3l-30 -19l-7 -1l-17 -14l-14 -5l-20 -15l-10 -2l-9 -14l-9 -6l-5 4l-4 -7l-13 -17l-16 -5l-1 -10l-2 -4l-1 -2l-13 -1v-11l-14 -7l-5 -5h-1l-8 4l2 -10l-12 -20l-7 -3l-8 -15l-5 -1 l-6 -11l-1 -8l-1 -6l-4 -4l-6 -4l-5 -8l-3 -11l-4 -8l-4 -25l-5 -12l-1 -5l5 -22l4 -11l7 -3l5 -6h10l4 3l10 -3l8 1l8 -2l11 5l5 -4l10 6l10 1l7 9l10 -2l8 6l56 26l8 9l22 16l24 19l13 6l10 7l7 3l11 15l16 3l11 14l12 6l2 8l11 5l3 12l9 4l12 11l15 9l10 13l11 6l13 14 l19 14l13 12l8 6l11 3l-1 -11l-6 -32l-2 -3l-38 -33l-10 -12l-10 -10l-6 -7l-8 -1l-6 -9l-14 -10l-10 -11l-8 -3l-29 -33l-18 -12l-6 -7l-9 -4l-18 -20l-10 -7l-5 -1l-17 5l-5 -1l1 -13l-8 -3l-5 -12l-19 -15l-8 -7l-8 -3l-9 -5l-19 -10l-11 -6l-8 3l-3 3l-9 -14l-5 -5 l-1 -1l-31 -10l-21 -10l-9 2l-13 -3l-12 1l-12 -2l-7 3l-18 6l-9 3l-4 3l-1 4h-5l-2 6l-10 5l-10 7l-2 3l-3 9l-17 16l-6 17l-2 7l4 7z" />
<glyph unicode="F" horiz-adv-x="500" d="M166 311l12 5l4 5l18 5l9 7l19 7l16 9l21 7l9 3l12 1l8 8h14l10 6l8 1l10 8l11 1l4 1l2 2l9 12l17 10l2 7l10 11l12 17l10 8l8 9l8 3l2 12l15 12l3 11l8 9l2 7l8 9l6 9l24 21l14 18l8 2l7 12l17 15l10 15l7 9l-27 4l-9 -2h-6l-12 -5h-13l-45 -19l-16 -2l-22 -15l-15 1 l-7 -9l-19 -13h-2l-11 1h-2l-32 -19l-9 -7l-3 -1h-8l-11 -10l-8 -6l-5 -11l-10 -1l-5 -3l-2 -3l-3 -7l-9 -12l-4 -18l-5 -4l-10 -6l-2 -1l-4 2l-18 17l-4 14l1 5l3 12l5 19l11 13l12 7l25 8l20 11l10 3l3 8l14 6l8 7l14 7l12 6h10l9 8l15 10l41 16l84 28l63 9l23 2l20 -4 l19 -22l9 -28v-4l-2 -3l-17 -17l-9 -24l-27 -23l-9 -18l-10 -7l-10 -14l-4 -3l-10 -4l-1 -11l-17 -10l-4 -14l-10 -7l-3 -12l-4 -10l-4 -3l-4 -2h-10l-4 -15l-13 -8l-1 -3l11 2l17 4l12 4l10 -2l10 6l11 1l18 6l16 3l16 3l23 -5l11 -10l5 -21l-1 -14l-3 -11l-9 -6l-18 -10 l-10 -2l-12 2l-11 3l-3 8l-11 1l-9 4l-8 1h-5l-15 -5l-15 2l-7 -8l-11 3l-10 -4l-9 1l-10 -1l-9 -10l-13 -4l-9 -17h-7l-2 -5l-3 -12l-10 -2l-4 -12l-4 -14l-9 -8l-6 -17l-12 -19l-12 -15l-11 -22l-11 -9l-6 -20l-27 -42l-3 -12l-3 -10l-4 -4l-8 -1l-3 -17l-10 -24l-3 -10 l-9 -5l-1 -1l-1 -7l-2 -11l-8 -4v-11l-1 -6l-2 -2l-8 -5l-2 -13l-9 -5l3 -16l-8 -7l4 -11l-5 -9l3 -10l1 -6v-3l-3 -6v-2l1 -2l2 -3h3h3l6 3l9 6l6 -9l1 -12l-4 -5l2 -10l-3 -6l-5 -4l-22 -4l-26 4l-15 9l-10 9l-4 5l-8 22l-7 20l-1 10l1 7l5 20l5 25l5 12l10 33l7 10l13 16 l12 8l-6 2l-2 2l-1 2l1 1l4 8l6 13l10 7l-1 6l7 10l-2 8l9 8l9 22l11 10l1 17l11 17l13 19l14 28l33 54l6 12l-13 -2l-35 -18l-12 3l-16 -16l-15 -1l-17 -6l-14 -8l-10 1l-9 -9l-5 -1l-8 -7l-9 -4l-7 -7h-14l-7 -8l-25 -18l-13 -21l-7 -6l-7 -11l-3 -1l-3 -1l-5 1l-9 12 l-6 16l3 11l5 14l14 23l10 6l28 10l32 21h10l10 4z" />
<glyph unicode="G" horiz-adv-x="504" d="M74 155l4 10l7 17l2 13l10 12l8 -2l-3 6l1 4h5l-2 6h-5l-1 11l6 10l2 11l8 12l4 9l12 2v11l7 17l5 1l2 17l9 6l-1 9l8 13l13 17l16 32l18 20l6 9l7 2l4 9l6 10l3 2l7 -2v11l7 7l4 9l60 57l13 15l17 6l8 11l8 3l12 12l7 2l12 2l1 10h12l5 9l13 7l7 6l16 6l16 10h9l9 8l8 1 l9 4l11 -2l12 3l8 -3l16 -5l9 -4l4 -12l7 -13l3 -15l3 -10l-5 -10l-1 -14l-17 -40l-5 -11l-7 -10l-12 2l-12 4l-4 4l-4 9l7 19l25 26l7 13l4 9v2l-1 5l-4 3l-5 2l-4 -1l-4 -2l-9 -6l-12 -1l-25 -10l-22 -14l-12 -4l-23 -21l-25 -21l-7 -10l-12 -2l-6 -9l-9 -7l-22 -24 l-14 -7l-5 -9l-13 -10l-13 -26l-11 -10l-7 -10l-10 -12l-4 -10l-11 -6l-6 -11l-13 -14l-9 -13l-15 -12l1 -15l-10 -16l-22 -33l-5 -22l-10 -16l-4 -15l-8 -10l-12 -33l-5 -12v-1l1 -10l-3 -11l-2 -10l-2 -17l9 -16l16 5l10 8l13 7l18 18l13 7l7 6l12 2l7 14l5 8h1l14 5l4 15 l65 71l9 18l15 3l3 10l11 17l8 7l5 10l7 5l32 47l17 20l8 17l17 24l12 20l11 8l12 3l7 -1l8 -7l14 -26l10 -26l-3 -19l-3 -22l-13 -22l-5 -15l-9 -14l-14 -38l-8 -10l-12 -41l-11 -19l-3 -12l3 -1l4 2l7 8l12 8l5 8l8 5l6 3l7 1l11 9l9 7l30 15l13 8l9 9l4 -1l12 4l1 -15 l-12 -9l-1 -14l-3 -10l-8 -9l-8 -5l-12 -2l-6 -12l-16 -1l-7 -7l-11 -7l-7 -6l-8 -8l-7 -1l-10 -7l-14 -12l-17 -7l-11 -6l-2 -3l-8 -13l-9 -13l-15 -44l-8 -12l1 -12l-18 -32l-11 -40l-14 -19l-5 -19l-9 -10l-15 -39l-24 -35l-4 -15l-7 -13l-12 -14l-10 -17l-20 -26 l-12 -23l-11 -4l-2 -13l-10 -4l-7 -11l-2 -2l-5 -1l-14 -1l-3 -7l-2 -1l-3 -1l-23 7l-8 4l-1 3l-6 18l-6 9l-2 12l-5 10l3 8l-2 10l4 17v20l9 21l4 16l8 13l18 45l11 16l10 17l3 10l16 13l16 28l12 6l3 7v9l7 7l19 21l5 7l29 26l20 23l19 17l19 19l6 2l4 11l2 11l10 17l1 10 l12 18l1 12l8 13l6 15l5 10l2 11l11 17l5 15v8l-7 -9l-7 -10l-20 -13l-29 -34l-10 -2l-6 -4l-4 -5v-2l1 -10v-2l-1 -2l-2 -1l-9 -3v-8l-1 -5l-3 -3l-12 -7l-6 -10l-10 -6l-4 -10l-4 -8l-3 -3l-9 -4l-14 -17l-12 -5l-3 -13l-9 -3l-3 -8l-19 -17l-12 -15l-11 -2l-15 -6l-10 -3 h-13l-11 1l-12 9l-17 2l-11 8l-11 7l-12 16l-10 12l-1 2l-1 16v4zM217 -199l7 1l3 2v17l5 14l2 10l8 7l1 8l7 8l10 29l9 15l6 9l9 4v8l3 4l1 10l2 7l3 4l12 9l-1 13l16 32l2 16l8 6l7 8l-3 13l-1 -1l-2 -8l-11 -5l-11 -8l-6 -12l-14 -6l-3 -14l-3 -3l-12 -3l-6 -4l-8 -17 l-4 -11l-10 -2l-6 -2h-1l-3 -9l-18 -25l-7 -17l-12 -17l-8 -32l-12 -17l-2 -12l-12 -32v-10l-2 -10l2 -10l-1 -27l5 -6h1l8 6l7 7l19 23l9 18z" />
<glyph unicode="H" horiz-adv-x="702" d="M425 661l10 -3l31 -14l14 -18l5 -21l-1 -9l-1 -10v-10l-6 -11l-3 -14l-16 -31l-8 -18l-30 -45l-4 -11l-8 -2v-11l-5 -11l-8 -15l-6 -16l12 -2l25 10l38 7l7 1l11 -1l16 8h1h10l25 4l13 6l55 6l29 6l11 1l5 10l2 10l11 9l4 11l7 10l5 15l11 18l5 14l5 8l7 8l1 10l9 9l1 15 l2 6l7 1l3 3l1 3v16l8 13l10 37l3 23l2 6l9 8l17 4l11 -3l16 -16l4 -5l3 -17l-13 -52l-14 -24l-5 -10h-8v-14l-5 -6v-7l-1 -6l-6 -8l-8 -9l-1 -10l-9 -18l-3 -11l-14 -25l-4 -16l30 -1l18 1l2 -1l15 -2l11 -2l2 -5l11 -2l4 -5l2 -10l-3 -13l-3 -4l-13 -9l-10 -7l-4 -2h-4 l-5 1l-12 5l-16 -1l-11 4l-9 -1l-23 1l-10 -5h-9l-8 -17l-20 -38l-6 -16l-6 -7l-6 -15l-8 -3l-2 -12l-4 -16l-10 -7l-3 -3l-4 -14l-2 -13l-6 -12l-5 -12l-5 -6l-9 -14l-6 -7l-7 -7l2 -11v-2v-4l-1 -2l-9 -6v-12l-10 -4l2 -10l1 -2l-1 -3l-1 -2l-10 -7l5 -12l-4 -21l8 -11 l-1 -11l7 -6l1 -2l-4 -10l-5 -8l-7 -4l-17 -3l-15 3l-19 10l-4 10l-10 12l-1 2l-3 28l1 16l2 17v1l-1 18l4 12l-5 24l-4 25l-8 15l-1 7v3l6 9l-11 3l-5 3l-2 2l-9 14l-19 7l-13 9l-27 12l-5 7l-14 3l-9 6h-14l-13 -4l-22 -39l-6 -10h-6l-2 -21l-13 -12v-10l-5 -7l-3 -13 l-16 -17l-1 -11l-10 -30l-5 -14l-11 -8l3 -16l-2 -3l-3 -2l-11 -3l3 -15l-9 -10l3 -18l-10 -13l1 -21l-2 -6l-7 -6l-6 -2l-5 1l-7 6l-23 26l-4 7l-9 28l2 20l4 24l10 20l6 15l12 20l17 41l12 17l3 13l12 16l9 20l18 30l6 8l-4 9l-11 -2l-18 -3l-18 -3h-3l-15 7l3 9l3 6l2 1 l20 14l7 5l28 9l15 10l14 2l6 4l5 -1l7 8l11 14v3l3 11l17 20l3 15l10 10l12 25l8 9l10 19l26 40l5 14l9 13l7 18l12 22l-1 15l-13 -2l-27 -4h-10l-13 -6l-10 -2l-22 -11l-17 -2l-10 -7l-17 -5l-4 -8l-14 -1l-11 -13l-21 -11l-7 -7l-10 -2l-7 -10l-13 -15l-12 -20l-10 -10 l-11 -4l-7 -10l-14 1l-11 6l-11 13l-4 15l2 9l8 14l6 4l41 23l22 13l12 2l95 55l14 2l29 15l12 1l35 13l25 3zM334 308h13l37 -10l6 1l17 -5l11 -4l6 -5l20 -4l21 -14l14 -10l5 -5l8 -15l11 -34l6 -9l4 11l21 47l4 8l8 6l-1 7l7 10l5 7l4 13l11 14l13 28l9 6l2 11l8 15 l-11 2l-14 -3l-13 2l-14 -7l-5 4l-1 1l-5 -1l-23 -5l-20 -1l-10 -3l-10 2l-12 -1l-11 4l-11 -9l-5 -2l-4 -1l-13 2l-6 2l-2 6h-4l-3 -9l-3 -3l-3 -2l-16 -3l-12 -5l-7 -2h-11z" />
<glyph unicode="I" horiz-adv-x="349" d="M262 672l9 10l11 -1l3 8l9 1l39 7h2l19 -2l21 -5l10 -3l9 -9l8 -2l4 -7l23 -24l12 -17l4 -20l-1 -11l5 -3l-2 -10l-2 -32l-5 -16v-8l-6 -13v-13l-7 -11l-8 -27l-20 -32l-25 -59l-10 -10l-6 -10l-3 -16l-5 -6l-7 -4l-11 -9l-1 -15l-11 -14l-16 -37l-6 -5l-8 -2l-1 -10 l-2 -6l-1 -2l-18 -22l-9 -24l-13 -20v-6l-6 -11l-9 2l1 -15l-1 -10l-12 -24l-3 -14l-7 -9l-3 -7l-3 -5l-2 -1l-7 -3l3 -5l-3 -10l2 -24l-4 -10l14 -22l1 -5l-3 -12l-8 -8l-19 -5l-21 5l-9 5l-11 11l-16 18l-4 7l-5 25l-1 11l5 5v5l4 20l3 12l15 28l12 28l7 8l5 17l14 24 l4 10l8 3v12l13 19l8 17l6 5l7 16l16 7l-3 12l5 13l5 11l18 24l5 13l6 4l3 12l8 14l13 17l4 12l7 10l7 1l1 12l2 10l8 9l9 8l-3 9l10 8l7 9l1 15l16 27l3 14l8 13l3 7l1 3v1l-1 15l5 5l3 6l1 6l-1 5l-2 7l-2 12l-7 9l-15 6l-10 7l-16 1h-10l-11 1l-1 -2l-12 1l-27 -10 l-17 -3l-10 -3l-2 -2l-8 -9l-2 -2l-2 -1l-6 3l-5 -3l-2 -12l-21 -14l-18 -18l-6 -5l-11 -11l-16 -19l-9 -15l-8 -8l-7 -8l-1 -5l-3 -20l-10 -11l5 -16v-3l-1 -6l-5 -11l13 -12l2 -11l-4 -15l-15 -14l-14 -4l-15 3l-7 7l-3 16l-1 10l2 18l3 11l2 17l16 31l6 16l11 18l7 11 l8 9l7 18l13 13l4 10l16 10l2 7l2 4l3 3l21 16l10 13l19 12l7 8l9 4l12 10z" />
<glyph unicode="J" horiz-adv-x="338" d="M96 49l9 16l11 6l12 13l11 6l19 19l7 3l30 21l16 11l5 10l10 18l3 11l6 9l7 8l-3 9l5 9l4 11l9 13l4 20l8 12l7 9l-1 12l10 18l5 18l4 10l9 -3l6 -6l1 7l-8 6l-2 4l-1 4l1 4l1 4l5 7l2 9l6 9l1 11l3 10l7 10l5 9l8 6l-8 10l11 10l-2 10v1v4l2 2l15 8l-5 12l6 14h8v2l-5 6 l-1 5l4 11l1 9l9 7l2 11l1 9l4 6l-2 10l5 15l-2 13l-5 23l-10 11l-13 5l-12 2h-5l-6 -3l-9 -4l-9 1l-6 -8l-9 2l-8 -12l-17 -11l-30 -23l-7 -5l-8 -14l-12 -5l-4 -9l-12 -13l-25 -38l-22 -31l-8 -24l-7 -8l1 -9l-11 -7v-18l-6 -16l-1 -17l-4 -12l-1 -16l-4 -19l6 -16l-3 -42 l14 -24l1 -13l9 -10l9 -18l15 -8l9 -12l9 -31l-1 -5l-5 -10h-9l-11 3l-9 12l-12 18l-7 23l-17 31l-5 16l-7 9l-1 22l-6 13l-2 18l-6 10l-3 40l-3 27l2 11v21l8 48l4 12l16 43l21 33l6 12l9 6l9 16l8 4l11 13l10 3l6 14l23 12l12 12l11 1l7 6l10 3l12 5l12 3l13 4l4 -7h4l3 7 l6 3l4 4l11 -1l43 3l26 -4l9 -3l13 -13l24 -23l2 -3l2 -11l1 -15l3 -10l1 -10l-2 -9l-3 -9l-4 -57l-13 -43l-10 -28l-13 -7l4 -10l-1 -5l-1 -12l-6 -13l-3 -14l-4 -6l-9 -6l4 -8l-5 -24l-8 -6l-1 -11l-2 -8l-8 -10l-8 -6v-12l-5 -15l-3 -12l-8 -10l-6 -17l-7 -10l-4 -12l9 4 l9 11l21 11l14 13l12 5l26 22l24 15l10 6l7 2l6 -1l3 -3l1 -4l-4 -15l-2 -11l-4 -10l-8 -4l-7 -7l-12 1l-5 -11l-5 -5l-2 -1l-24 -8l-10 -13l-9 -4l-16 -9l-16 -8l-12 -10l-15 -4l-11 -9l-7 -6l-2 -10l-4 -9l-7 -6v-11l-8 -10v-13l-16 -26l-2 -13l-8 -6l-4 -10l-10 -23 l-9 -11l-20 -41l-26 -44l-9 -19l-5 -7l-4 -10l-8 -4l-4 -7l-7 -5l1 -9l-1 -3l-2 -2l-10 -5l-3 -10l-8 -10l-7 -17l-9 -3l-3 -11l-11 -6l-4 -13l-13 -9l-8 -15l-21 -11l-19 -14h-2h-6h-11l-9 7l-9 16l-12 21l-2 3v7v1v27l1 20l8 16l2 8v1l-2 16v3l1 7l2 5l13 22l7 21l6 5 l8 18l24 33l4 13l3 7l3 2l14 9l19 29zM22 -200l8 6l7 10l14 15l11 24l13 10l2 10l4 13l20 25l5 15l8 11l9 18l6 8l2 13l19 35l15 33l7 11l18 24l3 6l7 10l-3 1l-11 -6l-10 -4l-13 -14l-11 -6l-5 -12l-22 -19l-2 -8l-11 -12l-8 -12l-8 -3l-4 -14l-8 -5l-6 -20l-11 -2l-3 -15 l-8 -3l-3 -9l-7 -9l-2 -16l-7 -8l-3 -13l-7 -11l-3 -21l-9 -8l-1 -18v-3l4 -8z" />
<glyph unicode="K" horiz-adv-x="621" d="M106 213l5 4l4 10l6 15l4 11l8 5l4 13l17 31l3 13l4 9l-9 8l-66 46l-5 5l-2 9l2 9l6 10l9 7l22 11l19 12l15 8l11 2l57 33l12 4l19 13l3 4l7 19l3 8l5 4l11 5l3 4l-6 8l2 11l4 14l8 17l1 10l4 22l-9 44l5 13l9 9l6 1l11 -1l20 -4l5 -2l5 -5l8 -15l10 -11l5 -10l3 -21 l-3 -20l-1 -3l-8 -9l-8 -15l-5 -5l-2 -3l-1 -1l1 -16l-7 -10v-1h10l7 6l15 4l29 16l11 4l14 12l19 6l7 4l11 3l8 7l15 9l10 2h11l6 9l5 4h7l11 4h6l13 11l11 2l13 8l19 3l12 9l17 6l12 9l11 3l10 5l7 -1l23 11l7 -2l12 -3l2 -1l1 -2l5 -17l1 -8l-4 -17l-14 -16l-22 -14 l-14 -7l-23 -4l-34 -17l-49 -13l-19 -11l-17 -4l-27 -12l-9 -1l-9 -4l-17 -5l-20 -9l-14 -3l-24 -14l-10 -3l-13 -8h-10l-18 -11h-12l-10 -10l-7 -1l-10 -3l-1 -7l-7 -9l-4 -11l-10 -10l-3 -11l-7 -12l-6 -15l-6 -8l-6 -13l-2 -7l-6 -4l1 -14l-17 -27l-4 -11l9 -6l9 -5 l16 -9l13 -5v-9l21 -9h9l11 -10l16 -4l12 -7l15 -8l9 -7l17 -5l11 -11l14 -2l8 -2l5 -3l6 -9l11 -5l25 -12l4 -6l10 -4l12 -6l11 -10l12 -1l29 -17l15 -5l7 -8l28 -14l7 -11l6 -20v-2l-7 -12l-4 -8l-11 -5l-20 -7l-7 -4l-11 2l-9 6l-6 7l-3 9l-5 5l-3 -6l-13 4l-27 24 l-26 15l-28 22l-34 20l-14 12l-23 11l-17 15l-10 7l-5 9l-12 8l-14 13l-12 5l-35 26l-30 17l-11 7v-14l-5 -10l-7 2l-4 -10l-2 -16l-6 -16l-3 -13l-3 -7l-3 -2l-6 -3l-1 -8l-9 -17l-26 -74l-10 -26l2 -8l-4 -19l5 -11l-4 -12l-5 -10l-5 -4l-6 -2l-7 2l-7 7l-11 2l-9 6l-9 13 l-2 9l-1 9l-6 18l-1 6v5l5 18l2 15l8 13l17 50l11 20zM180 356l33 82l-6 1l-6 -6l-9 -1l-15 -9l-22 -7l-8 -7l-14 -10l-3 -5v-4v-4l5 -7l35 -20z" />
<glyph unicode="L" horiz-adv-x="665" d="M287 274v9l4 7l3 9l7 9l1 11l15 24l11 29l7 12l4 10l-9 -5l-19 -10l-13 -11l-8 -3l-24 -15l-16 -4l-23 -12l-14 7l-1 -11l-8 -5l-9 -2l-6 1l-13 11l-6 8l1 11l2 8l1 2l13 11l10 9l4 2l11 1l10 -1l10 -1l8 -6h3h5l10 2l9 10l1 1l11 3l14 5l19 11l13 4l6 8l7 4l4 6l10 4 l14 7l1 1l10 19l3 6l-1 5l7 10l4 14l23 21l-1 9v2l3 14l8 11l9 5l1 11l4 13l3 3l10 6l2 4l-1 11l5 5l7 1l3 10l11 15l6 11l5 5l5 2l11 1l-1 11l9 13l7 8l11 7l11 4l18 3h5l11 -8l10 -7l9 -25l-1 -8l-4 -24l1 -11l-8 -2v-10l-3 -16l-3 -4l-13 -5l-1 -13l-14 -5l-1 -5l1 -11 l-9 -10l-9 -1l-6 -2l-3 -10l-9 -7l-8 -11l-13 -10l-11 -11l-11 -7l-18 -13l-9 -5l-4 -15l-23 -50l-1 -12l-5 -3l-1 -6l-5 -13l-4 -11l-8 -16l-6 -17l-12 -21l-8 -20l-9 -13l-4 -10l-14 -4l5 -5l2 -4l-4 -8l-1 -7l-17 -23l-3 -9l-6 -5l-2 -11l-9 -14l-1 -11l10 -2l18 4l8 -2 l10 2h1l9 -2l11 -1l27 2l9 1h1l24 -2l10 3l14 -3l13 2l19 -4l11 1h2l30 -6l33 -9l11 -3l11 2l8 1l15 -2l6 -3l31 -22l8 -5l5 -11l1 -9l-5 -25l-4 -8l-8 -9l-9 -2l-30 10l-10 6l-6 7l-10 7l-4 10h-15l-14 5l-17 10h-8l-6 5l-10 1l-13 2l-2 1l-5 7l-21 2l-8 4l-9 -2l-10 3 l-6 -2l-10 1l-21 1l-7 2h-12l-17 -3h-17l-4 3l-9 -6l-15 -4l-25 -3l-12 -1l-6 -8l-8 -11l-9 -3l-3 -13l-11 -9l-5 -5l-5 -2l-6 -10l-11 -13l-6 -3l-9 1l5 -7v-1l-1 -2l-1 -2l-12 -4l-8 -8l-11 -2l-9 -8l-23 -4l-12 -7l-10 1l-15 -1l-10 3l-3 -3l-9 3l-18 2l-9 7l-22 6l-3 2 l-14 17l-8 13v5l1 4l2 5l4 3l27 14l22 13l17 3l25 12l28 2l7 7l11 6l10 4l22 3l9 15l8 8l14 21l10 14l1 1v8l2 8l6 7l12 12l8 20l12 10l14 23zM34 39l9 -2l10 -6l1 -1l19 -3l16 -1h2l1 1l12 7l13 1l8 7l9 4l6 8l9 8l5 9l2 10l-11 -1l-13 -1l-19 -8h-9l-31 -12l-21 -6l-7 -4 l-11 -3l-2 -2v-2zM493 553l21 19l10 16l17 13l10 14l14 31l7 19v11l-10 -5l-6 -4l-17 -23l-9 -12l-14 -26l-5 -9l-14 -32z" />
<glyph unicode="M" horiz-adv-x="940" d="M75 384l10 4l51 25l17 7l10 7l14 5l21 9l4 2l3 6l18 2l16 13l24 9l12 9l16 3l29 13l23 7l13 4l19 2l10 2l9 1l20 -5l15 -16l11 -28l-3 -12l-4 -12l-15 -20l-6 -16l-10 -16l-8 -15l-18 -20l-15 -30l-6 -6l-5 -11l-21 -35l-4 -8l-7 -10l-8 -26l-6 -10l15 10l1 9l9 5l8 12 l9 8l21 19l11 6l15 24l13 8l13 12l21 24l6 10l24 18l6 9h5l6 3l3 3l4 13l19 14l12 11l4 2h1h1l4 -3l4 3l1 12l4 9l5 3l15 6l20 20l16 4l6 10l6 4l10 8h9l10 7l11 3l10 3l1 1l22 -5l6 -3l11 -9l9 -11l2 -14l5 -4l2 -3l-5 -9l-2 -23l-9 -23l-6 -24l-17 -25l-2 -8l-5 -8v-13h5 l8 4l4 16l14 9l17 23l12 9l9 5l3 9l10 9l13 14l15 9l14 19l22 12l9 12l19 17l19 14l8 2l15 10l17 7l16 8h9l12 4h7l13 -4l21 -21l8 -25v-1l-1 -14v-23l-11 -21l-1 -14l-8 -12l-7 -11l-5 -5l-1 -1l-4 -12l-2 -6l-7 -5l-2 -12l-6 -6l-5 -7l-6 -4l-4 -12l-9 -9l-8 -17l-8 -8 l-2 -10l-6 -10l-7 -13l-6 -6l-7 -13l-6 -4l-4 -17l-11 -3l4 -12l-6 -8l-5 -8l-1 -14l-13 -24l-3 -16l-2 -17l4 -10l13 -28v-7v-8l-4 -13l-5 -4l-17 -4l-14 3l-5 2l-11 9l-11 4l1 9l-15 4l-5 7l-6 8l-4 12l-4 25l1 8l6 29l3 21l11 21l3 13l11 11l14 28h11l-6 9l8 12h7l3 4 l-1 13l1 3l3 3l8 5l3 16l10 10l-1 8l8 11l26 42l9 10l8 17l15 10l-5 10l9 12l8 13l7 15l-20 -3l-7 -11l-16 -9l-10 -10l-11 -4l-11 -9l-7 -3l-16 -15l-24 -20l-16 -16l-14 -9l-10 -15l-7 -8l-8 1l-9 -5l5 -4l-6 -11l-12 -8l-15 -17l-9 -7l-10 -10l-5 -10l-18 -20l-9 -10 l-6 -3l-8 -12l-7 -6l-12 -16l-3 -9l-8 -3l-3 -7l-6 -3l-1 -11l-9 -6l-25 -17l-9 -1l-8 -4h-1l-8 4l-14 8l-3 10l-4 11l3 11v16l8 12l14 39l9 15l4 16l5 2l4 5l7 7l20 36l7 8l4 15l15 22l6 15l6 8l2 14l-16 2l-19 -17l-10 -3l-10 -4l-12 -11l-17 -10l-8 -11l-15 -6l-33 -28 l-12 -6l-10 -8l-11 -9l-14 -16l-7 -3l-10 -4l-5 -14l-13 -10l-10 -16l-19 -15l-7 -10l-16 -9l-2 -13l-15 -12l-3 -10l-3 -6h-8l-11 -5v-14l-3 -6l-5 -7l-8 -7l-7 -11l-7 -1l-5 -14l-20 -21l-47 -63l-4 -5l-6 -3l-12 -5l-11 -5h-3l-8 1l-11 3l-3 5l-9 6l-1 14l-5 4l-1 5l1 4 l21 53l2 14l11 8l11 9l-1 12l4 6l3 8l11 4l-3 12l14 12l-1 13l1 5l3 4l9 10l8 22l10 17l6 11l10 6l3 12l5 15l10 7l5 11l7 15l2 2l8 1l10 1l2 4l-2 2l-5 -4h-7l11 23l3 10l14 19l12 32l9 17l1 17l-16 -5l-14 -2l-32 -18l-14 -3l-24 -10l-14 -4l-12 -6l-9 -1l-9 -11l-21 -16 l-29 -18l-30 -16l-8 -6l-8 -6l-1 -11l-11 -13l-15 -10l-4 -1h-2l-14 5l-8 2l-3 2l-3 5l-3 12l2 11l4 7z" />
<glyph unicode="N" horiz-adv-x="743" d="M274 515l9 1l11 7l20 5l9 3l7 -5l9 11l17 1l11 5l15 -1h3l2 -1l3 -6l4 6l3 2h1h2l17 -7h8l8 -2l3 -3l4 -10l16 -25l1 -3v-2l-13 -31l-12 -24l-13 -16l-4 -8l-14 -15l-5 -20l-23 -23l-23 -41l-15 -15l-12 -18l-4 -10l10 10l19 23l32 28l19 20l8 3l4 6l23 20l10 14l11 5 l1 7l4 5h9l1 11l12 3l2 5l4 2l4 9l21 18l5 9l13 8l7 6l6 -1l3 -3l2 10l3 4l9 7l27 14l28 19l16 6l27 16l35 1l20 1l11 -2l12 -9l16 -12l8 -14l2 -15l-4 -18l-17 -30l-6 -14l-11 -19l-6 -17l-18 -24l-19 -40l-12 -16l-5 -16l-14 -17l-16 -41l-6 -4v-1l-5 -17l-7 -15l-8 -16 l-7 -14l-8 -11l-1 -13l-5 -11l-3 -24l-2 -14l1 -4l4 -4l5 -1h5l10 5l22 15l16 14l21 16l27 22l10 2l5 10l13 17l13 8l7 2l5 -1l9 -7l-5 -5l3 -12l-2 -10l-3 -11l-9 -6l-4 -8l-10 -7l-8 -5h-8l-4 -10l-9 -6l-22 -19l-10 -5l-10 -7l-20 -7l-12 -9l-14 -2l-16 -4l-14 -1l-13 1 l-17 10l-24 16l-13 14l-8 35l-1 22l1 4l15 31l3 10l11 5l-1 13l3 7l1 9l24 37l8 14l12 31l11 14l6 20l12 14l7 13l9 12l10 20l20 28l3 9l5 11l1 9l9 13l1 12l-15 -3l-16 -10l-39 -18l-13 -11l-19 -11l-7 -8h-10l-6 -9l-9 -6l-9 -12l-17 -5l-17 -23l-21 -7l-8 -20l-25 -16 l-11 -21l-11 -4l-7 -8l-15 -19l-11 -7l-17 -16l-14 -18l-18 -14l-14 -16l-25 -27l-9 -15l-9 -8l-8 -8l-10 -3l-7 -8l-17 -24l-20 -20l-11 -15l-9 -5l-3 -10l-13 -10l-9 -17l-7 -5l-20 -6l-9 2l-9 7l-9 15l-7 14v20l-1 9v2l1 1l15 24l8 20l9 9l11 22l11 2l2 4v12l6 8l7 14 l8 6l5 9l11 20l7 8l6 11l7 5l1 8l9 12l9 6l4 13l12 13l13 19l7 7l11 15l8 7l3 12l10 2l5 12l5 7l4 11l15 5l-1 13l15 18l8 16l1 4l-1 4l-2 2l-2 1h-1l-13 -3l-10 1l-13 -5l-22 -5l-10 -5l-10 1l-23 -13h-1h-5l-12 1l-7 -7l-8 -2l-10 -2l-6 -8h-12l-13 -13l-48 -24l-8 -10 l-10 -8l-14 -22l-12 -6l-10 -9h-2l-12 1l-9 3l-8 8l-6 20l2 10l8 11l9 7l43 21l18 9l13 2l25 14l42 21l9 7l48 19z" />
<glyph unicode="O" horiz-adv-x="530" d="M84 197l-2 15l1 15l8 13l-1 11l1 5l4 4l8 6l-3 10l10 13l-1 16l9 12l3 13l3 6l4 3l6 2v11l2 5l1 8l13 5l-1 8l9 9l-3 10l13 12l12 19l5 14l5 7l5 2h8l3 17l16 19l8 11l9 7l9 16l7 4l9 6l1 7l9 7l10 13l8 6l5 13l11 3l6 9l26 25l6 3l11 4l7 10l6 4l3 8l11 2l24 16l1 1 l10 1l6 -1l4 -3l7 -10l5 -12l13 11h13l8 5l13 4l12 9l20 -3l15 7l27 -4h22l12 -5l9 -3l7 -6l6 -8l10 -6l4 -9l13 -29l5 -16v-1l-1 -26l1 -16l-7 -12l-2 -24l-18 -39l-6 -24l-11 -25l-2 -1l-4 -1l-5 -12l-8 -22l-2 -2l-14 -12v-14l-13 -17l-10 -21l-26 -31l-7 -13l-8 -7 l-22 -34l-14 -12l-6 -6l-11 -6l-1 -11l-7 -9l-41 -36l-21 -29l-18 -10l-7 -9l-9 -2l-5 -10l-10 -4l-13 -15l-10 -3l-15 -10l-17 -5l-11 -2l-2 -6l-13 -4l-11 -4l-6 -8l-14 1l-11 -3h-5l-5 -5l-8 3l-7 -1l-12 -3l-4 1l-22 9h-17l-15 13l-19 15l-6 11l-6 10l-2 12l-5 10l-1 20 l-3 10l1 16l-3 18v2l5 19zM335 157l3 14l12 6l12 20l9 2l3 3l3 13l9 9l15 19l11 11l18 26l9 9l4 10l15 10v10l3 10l4 5l19 16l2 3l2 6l1 9l10 14l4 8l7 7l8 12l5 11l11 14l7 21l9 6v13l8 11l11 31l7 12l-2 9l5 15l-3 16l4 12l-1 9l1 9v1l-10 18l-4 9l-15 2l-15 -1l-17 2 l-35 -13l-10 -1l-9 -3l-5 -4l-6 -8l-10 1l-5 -14l-17 -11l-21 -21l-29 -33l-7 -13l-3 -12l-14 -21l-1 -11l-2 -3h-5l3 -11l-2 -22l4 -28l-3 -19l-11 -11l-16 -4l-11 3l-8 9l-4 19l-2 17l5 26l8 20l11 13l5 19l29 39l13 26l21 18l14 20l10 10l14 11l-17 -4l-25 -19l-14 -7 l-6 -10l-4 -5l-11 -10l-10 -14l-14 -10l-3 -12l-8 -8l-5 -11l-8 -5l-3 -10l-15 -8l1 -10l-19 -28l-2 -7l-4 -11l-11 -9l-8 -25l-42 -64l-4 -15l-7 -8l-11 -36l-6 -6l-2 -12l-5 -6l-6 -22l-8 -11l2 -8l-4 -12l-6 -18l-2 -20l-6 -27l1 -11l-1 -11l2 -10l-2 -11v-1l3 -9l14 -13 l22 -6l42 11l12 5l16 16l16 5l14 14l9 3l9 9l9 5l5 9l8 6l9 12h7z" />
<glyph unicode="P" horiz-adv-x="581" d="M129 560l12 15l6 3l5 1h3l8 -3l6 9l10 8l12 8h3h1h8l10 3l1 4l8 6l7 5l12 3l22 9l34 8l30 8l15 1l24 8l16 1l12 2l4 -7l17 12l9 3l2 1h1l11 -2l14 3l13 -3l29 5l15 -1l54 1l27 -4l13 -4l12 -1l23 -4l4 -2l10 -9l19 -4l5 -4l2 -2l4 -8l9 -6l6 -6l-1 -12l13 -5l1 -8l8 -11 l3 -10l5 -16l2 -17v-40l-1 -9l-7 -23l-3 -14l-10 -20l-17 -26l-4 -7l-6 -4l-2 -8l-1 -1l-13 -10l-10 -9l-7 1l-8 -11l-30 -19l-25 -8l-12 1l-7 -6l-10 -2l-11 -6l-37 -10l-11 -2h-3l-14 3l-8 -5l-5 -2l-2 -1l-21 3l-32 -6l-6 7l-3 -1l-6 -9l-19 3l-24 -2l-17 4h-10l-8 2 l-9 1h-5h-13l-8 -10l-12 -14l-12 -24l-13 -8l-1 -18l-17 -20l-3 -18l-8 -11l-4 -12l-8 -7l-1 -15l-27 -58v-28l-6 -15l-9 -9l-12 -3l-13 3l-8 7l-10 15l-9 13l-5 10l-1 10l8 31l43 82l4 6l10 5l4 -2l2 4v1l-3 10l-1 5v1l7 8v12l6 11l10 24l6 4v12l1 6l3 4l9 10l4 8h7v15l1 5 l4 5l7 7l7 -4l1 2l-5 5l-1 4v1l1 1l15 24l4 14l3 10l7 1l3 12l5 10l21 38l9 13l2 7l5 11v12l4 12l3 11l5 7l7 9l11 1l9 -1h1l11 -12l7 -6l4 -16l10 -20l3 -22l-2 -10l-5 -5l-11 -8l-7 -7l-5 -9l-6 -19l-12 -19l-10 -30l-15 -16l-2 -12l-1 -14l11 2l9 1h2l15 -3l9 4l11 -4 l17 5l19 -2l15 5l43 7l16 7l24 4l11 6l18 1l10 11l40 18l31 29l8 5l-1 8l9 7v11l14 12l-4 5l5 14l-1 10l2 5v13l-2 30l-9 22l-12 15l-10 7l-1 8h-14l-8 8l-14 -1l-17 9l-12 1l-9 4l-17 -2l-13 2l-17 1l-10 3l-10 -6l-9 2l-30 -3l-31 3l-10 -7h-4l-3 5l-9 -5l-8 2l-23 -7 l-36 -5l-38 -12l-10 -1l-12 -4l-10 1l-21 -10l-22 -10l-11 -8l-13 -1l-12 -11l-26 -21l-8 -12l-11 -4l-11 -3l-1 -12l-7 -3l-3 -4l-8 -17l-3 -20l-6 -4l-6 -3l-6 -2l-5 2l-10 10l-7 27l5 19l13 16l19 14l24 17l15 7z" />
<glyph unicode="Q" horiz-adv-x="510" d="M102 296l2 12l4 9l1 10l7 7l4 14l14 29l6 17l13 12l5 17l8 2l4 14l21 37l6 12l9 10l9 11l8 5v10l5 4l8 4l8 20l8 6l9 11l9 7l3 8l9 11h7l4 9l18 19l27 24l7 1l8 8l15 12l3 1l18 2l10 3h2l10 -2l6 -5l7 -11l19 10l14 13l21 7l13 10l14 2l22 2h3l19 -2l22 -6l5 -3l19 -22 l9 -9l3 -6l1 -2v-1l-2 -13l1 -1l5 -7l4 -3l1 -6l-6 -3l5 -13v-4l-6 -37l-1 -11l-6 -11l3 -13v-2v-3l-1 -1l-6 -8l-1 -13l-9 -21l-6 -20l-11 -21l-1 -14l-4 -10l-6 -8l-8 -7l-1 -11l-4 -10l-12 -35l-13 -11l-9 -22l-23 -36l-10 -24l-12 -8l-3 -13l-8 -10l-3 -8l-11 -7l-4 -10 l-9 -11l-7 -12l-6 -4l-11 -3v-8l-10 -10l-3 -9l-15 -14l-8 -8l-9 -6l-11 -18l-13 -9l-1 -3l6 -15l8 -14l10 -7l5 -7l11 -11v-10l11 -2l22 1l8 -5h12l8 -4l14 -15l3 -10l-1 -5l-3 -6l-8 -9l-10 -3h-10l-6 -3l-23 1l-20 11l-15 7l-6 9l-11 10l-4 11l-11 15l-4 12l-7 9v12l-5 9 l-8 -9l-17 -5l-11 -11l-10 -6l-6 -3l-16 -6h-10l-5 -5l-12 1l-12 -6l-18 2l-21 -2l-10 1l-2 1l-29 21l-15 8l-10 13l-15 38l-10 53v1l3 10l-2 9l1 24l-1 11l7 18l-1 16l11 35l5 22zM135 115l5 -7l1 -17l7 -25l5 -10l6 -5l6 -1h4l19 8l7 1l10 8l22 7l14 16l10 5l11 13l8 4 l7 7l-9 12l-6 7l-4 11l-7 6l-11 -6l-10 -5h-1h-1l-12 1l-11 1l-3 3l-3 4v5l2 9l11 10l19 5l30 -5l3 -2l5 -8l20 -22l7 -6l9 6l10 10l22 29l12 22l8 8l6 9l9 5l7 13l17 16l6 13l9 6l4 16l20 21l5 15l15 23l14 20l12 14l1 4v13l10 14l5 10l4 9l5 17l7 6l6 14l9 5l-1 16l2 11 l6 11l7 9l-1 13v7l10 30l1 14l3 18l-1 19l-2 1l-1 11l-9 11l-6 6l-11 1l-32 -5l-24 -11l-38 -27l-17 -12l-22 -24l-12 -9l-5 -9l-10 -6l-9 -22l-10 -6l-2 -9l-12 -25v-9v-12l8 -19l1 -8l-1 -4l-8 -17l-6 -11l-4 -2l-11 -2l-11 3l-7 7l-6 14l-1 10l1 3l10 31l1 10l24 34 l11 28l14 16l5 15l7 8l7 11l16 13l7 8l-8 1l-13 -4l-7 -8l-17 -7l-22 -24l-11 -13l-9 -14l-10 -7l-11 -23l-12 -15l-2 -11l-15 -19l-12 -22l-5 -7l-9 -8l3 -8v-6l-11 -11l-14 -23l-3 -13l-9 -9l-1 -21l-8 -7l-10 -13l-2 -5v-16l-9 -20l-8 -24l-5 -11v-10l-9 -23l3 -12 l-4 -13l-1 -26l-2 -20l2 -11z" />
<glyph unicode="R" horiz-adv-x="597" d="M130 595l11 4l16 5l29 7l33 10l6 1l11 -4l6 4l2 4h15l21 5l11 -1l11 5l7 -1l22 6l28 3l35 7l23 1l11 1l2 -1l10 -5l27 6l23 -3l17 3l13 -7l6 4h10l13 1l8 -3l18 1l16 -5l19 -1l19 -8l9 1h3l14 -9l5 -3h1l5 1l12 -6l6 -10l13 -9l2 -7l4 -9l14 -11v-11l6 -19v-13l-2 -14 l-3 -20l-4 -9l-2 -2l-11 -8l-9 -13l-12 -5l-17 -12l-14 -1l-19 -12l-20 -3h-10l-7 -8l-7 -3l-75 -12l-7 -4l-11 -1l-11 -7l-15 2l-7 -4l-4 -1h-1l-6 5l-9 -7l-7 -4l-5 -1l-4 1l-7 1l-15 -6l-9 3l-15 -5l-14 -9l-4 2l-8 5l-8 -7l-7 -6l-13 2l-11 -4l-12 -7l-6 -13l-4 -12 l-6 -7l-2 -12l-10 -10v-9l-10 -10l-7 -13l-9 -15v-3l1 -2l19 -19l44 -36l10 -6l-1 -7l6 -4l1 4h4l2 -1l6 -5l10 -8l7 -6l6 -13h2l3 3l9 -5l10 -6l27 -23l9 -6l14 -16l24 -16l9 -8l6 -3l8 -5l10 -11l36 -28l18 -14l17 -17l8 -12l11 -5l20 -17l10 -12l3 -12v-12l-8 -7l-22 -15 l-8 -1l-13 2l-17 8l-10 3l-7 18l-1 1l-10 4l-12 5l-2 2l-15 18l-24 21l-9 12l-8 7l-23 24l-13 8l-13 16l-23 17l-11 15l-8 9l-5 9l-20 15l-6 15l-12 3l-11 9l1 4l-2 5l-10 3l-6 4l-10 13l-7 5l-18 20l-8 6v6l-10 5l-2 -6l-7 -6l-13 -25l-6 -6l-3 -15l-22 -53l-7 -46l-4 -7 l-5 -3l-7 -1l-19 4l-19 12l-5 5l-9 20l-5 9l2 13l6 23l30 57l5 12l6 5l5 11l7 19l15 23v5v5l-2 2l-13 10l-6 12l-11 7l-10 11l-3 15l1 6l29 22l17 10l18 6l30 15l12 2l7 4l1 1l12 30l7 9l13 29l4 4l3 4l4 13l5 21l3 4l10 4l-4 12l3 7l-6 10l-1 9l2 9l5 5l12 5l7 1h4l17 -10 l14 -9l5 -9l7 -13l1 -16l1 -4l-1 -4l-8 -12l-12 -25l-13 -36l-3 -10l11 2l8 8l7 2l21 3l64 17l21 2l4 1h1l5 -4l7 1l1 6l6 4l7 3l8 -6l1 6l17 4l6 -1l3 7l1 1l8 1l15 1l4 3l13 8l18 8l47 15l7 8l10 13l2 7l-2 8l-6 10l-11 2l-7 4l-7 8l-7 -1l-10 4l-13 3l-12 7h-9l-20 10 l-11 1l-1 4l-23 -3l-7 5h-16l-10 -2l-5 4l-12 -1l-27 4l-38 -3l-15 8l-10 -4l-13 -1l-14 1l-11 1l-3 -2h-10l-22 -4l-7 1l-10 -3h-33l-9 -6l-9 2h-15l-7 -10l-12 1l-7 -7l-15 -5l-13 -12l-9 -4l-3 -11l-6 -8l-14 -8l-17 -3l-17 4l-9 9l-5 15l3 11l25 23zM166 313l26 -20 l9 12l9 17l3 11l-12 -2l-6 -5l-14 -1l-7 -4z" />
<glyph unicode="S" horiz-adv-x="569" d="M212 74l13 9l24 11l11 7l20 5l16 8h11l13 10l12 2l5 6l23 18l12 12l23 34l10 9l7 21l7 8l-6 9l-4 13l-14 12l-6 7l-12 2l-11 4l-15 8l-3 3l-7 6l-7 -1l-43 13h-7l-12 4l-12 1l-3 5l-11 3l-6 4h-21l-11 3l-3 6l-14 -3l-12 6l-32 6l-8 5l-10 3l-6 5l-14 1l-9 7l-17 11l-5 8 l-8 10l-1 4l-1 12l4 31l4 10l7 12l3 8l11 9l5 13l12 9l3 7l19 18l7 8l11 7l8 6l8 4l5 8l7 5l22 17l32 15l10 6l12 4l10 2l7 11l17 2l10 10h13l7 8l6 2l33 6l31 13l13 -2l8 8l7 5l6 1h2l7 -4l12 3h17l21 5l19 -3l12 -5l1 6l2 3l2 2h3h3l9 -5l9 -4l12 2l8 1l4 -1l6 -7l8 1l5 5 l4 -1l5 -9l17 -1l4 -2l5 -6l6 -9l10 5h2l5 -1l1 -1l1 -1l8 -15l10 -10l2 -7l9 -4l2 -3v-12l5 -7l3 -22l3 -10l-1 -18v-24l-6 -11l-6 -9l-8 -3l-9 -5l-5 -1l-6 2l-5 3l-6 7l-6 6l-1 3l-1 3l2 7l5 8l8 7l11 4l-4 13l-6 5l-11 15l-10 7l-7 13h-12l-12 2l-21 3l-21 7h-10l-26 4 l-47 -6l-16 -1l-33 -9h-16l-38 -14h-7l-9 -5l-13 -5l-21 -11l-11 7l-7 2l-5 -7l-1 -10l-10 -7l-19 -5l-6 -6l-8 -1l-12 -8l-11 -2l-10 -14l-11 1l-7 -11l-9 -2l-11 -10l-21 -15l-5 -10l-12 -6l-3 -10l-16 -22l-2 -3v-4l1 -5l2 -4l2 -1l13 -4l11 -7l11 -1l17 -7l6 -2l4 -8h3 l8 7h3h3l10 -9l6 4l7 -2l11 3l14 -4l8 2l17 -8l11 3l12 -5l10 4l12 -6l9 -3l27 -3l15 -11l4 4l1 1l3 1l4 -1l28 -10l14 1l4 -2l1 -3l1 -2l-1 -4l-2 -8l2 -4l11 6l5 4h2l7 -3l23 -11l9 -9l10 -13l3 -10l2 -11l3 -8l1 -3l-2 -10l-3 -17l-6 -6l3 -12l-6 -7l-14 -22l-10 -8 l-2 -9l19 10l100 49l21 7l4 -1l3 -3v-2v-1l-5 -11l-5 -15l-4 -7l-3 -2l-14 -7l-7 -8h-6l-5 -8l-10 -3l-13 -3l-9 -7l-13 -5l-11 -6l-12 -2l-23 -15l-32 -10l-6 -6l-10 -3l-26 -18l-19 -6l-18 -13l-30 -20l-23 -11l-18 -14l-10 -2l-14 -9l-9 -7l-33 -11l-27 -14l-19 -4 l-22 -7l-15 -2l-20 -5l-14 -2l-21 -5l-12 3l-13 -1l-9 7l-9 4l-1 2l-4 11l1 5l7 10l14 10l33 14l10 9l19 4l11 8l14 3l24 12l11 2l14 9zM111 1l9 1l20 4l38 13l22 4l8 8l8 1l12 8l15 7v3l-19 -1l-20 -9l-27 -7l-51 -25z" />
<glyph unicode="T" horiz-adv-x="347" d="M129 606l13 -1l17 8l7 2l10 6l20 6l10 8l53 16l8 3l11 -1l14 9l13 -1l7 3l11 1l11 8l15 -1l13 3l20 1l11 4l19 2l4 2l7 -1l10 5h20l16 5l43 -1l14 5l27 -3l45 6l12 -1h2l6 3l10 -1l29 4l15 -1l13 1l15 -4l8 -10l6 -21l-4 -26l-1 -2l-2 -1l-14 -6l-8 -4l-15 -1h-9l-9 2 l-5 5l-5 7l-11 4l-16 7l-17 -1h-12l-10 -3l-30 2l-7 1l-15 -1l-12 1l-10 -2l-20 -2l-8 -4l-2 -3l-1 -3l5 -13l3 -10l-8 -13l-33 -26l-12 -19l-9 -4l-7 -7l-9 -13l-8 -21l-6 -6l-13 -19l-7 -3l-5 -6l-10 -3l-2 -19l-6 -8l-7 -13l-12 -15l-15 -33l-11 -16l-11 -17l-14 -16 l-2 -21l-4 -16l-7 -7l-9 -5l-1 -15l-12 -32l-11 -34l-18 -30l-13 -60l-11 -32l1 -1l5 -15l1 -5l-1 -5l-5 -12l-4 -14l-5 -7l-5 -3l-11 -2l-25 5l-17 13l-5 7l-6 18l-5 13l-1 11l1 10l10 41l2 17l9 27l19 34v1v6l2 15l6 8l27 52l16 16v19l13 17l5 12l18 19l9 22l17 21l19 29 l9 11l15 5l7 26l21 21l5 10l22 25l15 22l21 19l9 11l9 9l3 3l4 12l12 5l5 8h-11l-20 -5l-10 2l-21 -6h-10l-8 -8l-11 2l-12 -1l-10 -6l-29 -5l-30 -13l-13 2l-17 -12l-24 -3l-21 -10l-10 -1l-24 -12l-10 -3l-7 -8l-14 2l-11 -12l-23 -12l-11 -17l-11 -11l-7 -9h-2l-9 2 l-10 10l-3 14v9l3 5l7 13l15 23l8 3l31 10l14 8l9 4z" />
<glyph unicode="U" horiz-adv-x="576" d="M248 664l11 6l36 7l38 -4l10 -4l14 -15l10 -36l1 -10l-12 -30l-18 -37l-25 -40l-7 -15l-15 -26l-3 -11l-16 -24l-6 -17l-8 -13l-12 -30l-13 -17l-19 -40l-14 -18l-2 -14l-11 -24l-5 -23l-6 -11l-8 -32l-15 -45l-1 -25l-2 -27l2 -9l2 -3l9 -4l14 8l12 8l26 26l10 6l9 14 l17 -2v11l2 10l2 2l8 4l3 6l8 8l5 13l32 39l14 20l13 1l-2 11v1v4l1 1l27 38l6 12l7 6l5 -6l4 -1l-4 9v2v3l2 5l12 21l4 8l9 17l17 18l8 24l8 8l9 7l-2 10l12 26l21 42l13 18l20 30l9 7l12 8l17 8l22 2l6 3l6 -2l10 -1l11 -9l7 -7l2 -9l-1 -8l-4 -10l-13 -22l-7 -10l-8 -7 l-2 -12l-4 -6l-6 -14l-8 -10v-11l-16 -33l-9 -30l-2 -4l-2 -1l-7 -1l6 -11l-13 -15l4 -14l-8 -14l-2 -11l-6 -12v-10l-8 -16l-6 -11l1 -10l-6 -6v-10l-5 -4v-12l-4 -8l-3 -25l-6 -16l4 -11l-2 -19l4 -12l19 7l4 9l9 4l3 10l10 3l7 3l3 2l12 14l30 22l5 8l11 11l13 15l4 1 l6 -2l6 -7l2 -7l-9 -33l-4 -10l-9 -6l-7 -10l-30 -21l-37 -30l-19 -5l-9 -8l-13 -6l-8 -6l-11 2l-6 -5l-13 6l-21 14l-2 3l-7 15l-7 12l1 20l-4 26l11 62l-1 17l12 31l4 27l1 10l-4 -10l-4 -8l-13 -5l2 -17l-1 -3l-9 -8l-9 -6l6 -3l-4 -9l-7 -10l-8 -8l-8 -8l-4 4l-4 -10 l2 -4l-1 -5l-6 -9l-11 -18l-7 -2l-5 -9l-7 -4l-1 -11l-23 -32l-15 -27l-7 -10l-6 -1l-5 -5l-5 -2l-3 -11l-10 -6l-8 -15l-35 -26l-8 -5h-1l-12 4l-3 -9l-3 -3l-12 2l-10 -2h-2l-12 4l-21 15l-14 13l-13 20l-13 12l-2 12l-10 15l-1 12l-3 18l2 10v11l9 36v10l11 34l5 20l3 5 l2 2l12 2l1 5l-6 2v2l-1 1l1 3l5 12l3 15l13 18l3 12l11 22l9 23l14 17l5 16l11 12l8 15l10 11l7 21l13 12l10 27l17 24l6 8l3 2l9 -1l1 2l-5 12l10 14l4 -3l6 -2l-3 14l6 29l1 2l-1 5l-4 4l-6 2l-11 -1l-6 5l-2 -6l-4 -4l-2 -1h-1l-10 3l-21 -11l-11 3l-7 -11l-15 -3l-7 -7 l-14 -6l-7 -7l-11 -7l-9 -7l-11 -7l-5 -13l-11 -9l-7 -8l-1 -3v-26l-1 -2l-7 -7l-5 -3l-18 -5l-18 4l-8 8l-3 8l2 26l3 16l9 11l21 18l21 12l19 16l33 17l10 7l35 15l14 8h1h12l13 9z" />
<glyph unicode="V" horiz-adv-x="534" d="M248 545l2 7l7 5l15 8l35 16l44 11l20 -6l13 -12l4 -19l-1 -14l-5 -15l-2 -3l-5 -2l-1 -12l-20 -35l-7 -12l-8 -11l-9 -22l-6 -9l-5 -12l-17 -26l-4 -14l-10 -12l-8 -26l-12 -11l-1 -15l-7 -10l-19 -55l-24 -57l-1 -14l-6 -14l-2 -14l-8 -21l1 -16l-1 -12l1 -11l10 7l6 6 l10 8l8 17l7 5l8 11l10 10l7 14l15 22l24 35l10 16l9 9l11 20l3 2l2 1l1 -1l9 -5l1 12l-6 5l4 9l11 23l13 22l29 38l9 20l8 2l9 7l10 2l1 -7l5 5v4l-3 3l-7 1l-2 11l1 2l7 8l22 25l7 8l7 -2h3l1 10l7 8l1 5l11 9l-1 8l9 5h11l7 7l-7 3l1 8l13 11v6l1 3l2 3l20 19l18 21 l21 15l5 12l16 1l2 2l1 2v7l9 7l14 10l10 4l7 8l17 10l11 3h1l11 -1l7 3h12l7 -5l6 -1h3l10 -14l7 -27l-7 -29l-14 -19l-12 -5l-22 -5l-23 -9l-12 -4v-6l-6 -5l-3 -5l-13 -8l-4 -6l-6 -3l-3 -7l-11 -8l-8 -8l-17 -11l-5 -11l-10 -4l-16 -20l-17 -16l-13 -19l-13 -12l-16 -24 l-13 -8l-8 -7l-1 -12l-10 -4l-3 -4l-1 -3l-2 -11l-9 -11l-8 1l-11 -15l-3 -12l-10 -6l-6 -14l-5 -3l-5 -10l-25 -29l-6 -12l-6 -6l-4 -14l-42 -57l-30 -43l-8 -4l-3 -11l-9 -11l-8 -9l-4 -10l-10 -3l-13 -11l-20 -5l-6 -1l-3 1l-8 4l-10 6l-5 7l-12 5l-4 15l-15 36l-2 15 l-2 11v10l4 20l-3 8v8l7 7l1 14l6 9l-1 19l1 6l2 3l7 9l1 17l2 4l1 1l8 2l-2 11l5 11l1 13l5 6l4 9l21 40l5 13l12 1v7l-7 8v1l1 3l7 10l7 8l1 8l5 6l2 3l-2 5l4 12l12 23l7 24l8 11l1 9l3 10l-2 10l-16 -4l-9 -12l-13 -1l-7 -3l-2 -2l-9 -12l-15 -12l-17 -14l-32 -25 l-9 -14l-5 -7l-7 -26l-6 -7l-7 -4l-16 -3l-12 1l-2 2l-8 11l-5 14v3l1 7l12 16l36 31l8 4l8 10l5 5l3 2l7 3l12 14l13 5l10 10l23 14l16 12h7z" />
<glyph unicode="W" horiz-adv-x="736" d="M229 532l8 7l10 4l15 9l25 8l15 7l13 2l30 5l3 1l28 -3l8 -1l3 -2l6 -6l14 -12l6 -12l5 -21v-4l-3 -17l-3 -12l-10 -13l-5 -5l-1 -3l-1 -6l-8 -7l-4 -10l-7 -17l-36 -64l-5 -15l-9 -18l-5 -11l-5 -5l-3 -12l-6 -7l-7 -22l-5 -7l-11 -29l-14 -27l-1 -12l-1 -11l-5 -2 l-5 -8v-19l9 3l8 7l20 14l6 14l8 3l12 12l12 8l10 16l21 21l6 13l10 6l6 9l8 5l5 11l15 15l15 22l6 3l11 4v12l3 6l30 37l5 11l7 7l9 6l-1 8l7 15l4 14l10 7l6 10l13 8l1 10l3 10l1 11l6 2l3 2l4 10l9 19l3 2l14 8l14 10l16 -4l15 -3l2 -1l4 -7l4 -9l2 -12l-2 -9l-7 -13 l-3 -12l-11 -16l-5 -17l-14 -29v-10l-2 -5l-14 -3v-11l-7 -23l-1 -9l-8 -9l-2 -18l-12 -29l-1 -10l-3 -7l1 -11l-10 -3l3 -17l-7 -14v-8l-3 -14v-10l-1 -13l3 -22l-1 -14l3 -4l11 -11h10l11 3l13 9l20 20l8 7l9 12l8 6l4 13l9 6l13 29l11 5l5 16l3 10l12 2l-1 10l7 6l2 10 l19 37l3 10l13 20l1 11l10 21l4 24l12 20v13l11 16v20l3 10l7 3l-1 7l-8 8l3 6v3l-1 7v4v3l5 6l-4 10l-6 20v1l2 18l1 22l8 18l16 14l25 6l14 -2l9 -6l4 -11l8 -22v-1l-3 -30l2 -20l-6 -11l2 -26l-15 -31l-3 -31l-12 -8v-22l-1 -9l-12 -12l-5 -17l-7 -22l-19 -24l-5 -17 l-9 -6l-17 -42l-6 -7l-18 -32l-12 -5l-1 -12l-18 -28l-12 -20l-15 -4l-3 -14l-4 -8l-7 2v-11l-2 -4l-6 -7l-26 -22l-29 -23l-18 -7l-17 -7l-11 -2l-4 1l-15 5l-18 4l-9 6l-5 6l-7 12l-11 10l-5 26l-8 18l2 17l-1 18l4 18l5 11l1 18l6 17l3 11l-5 3h-2l-2 -2l-4 -14l-16 -18 l-10 -14l-13 -22l-4 -10l-12 1l-2 -14l-6 -8l-7 3l-2 -11l-8 -9l-9 -6h-11l-3 -16l-10 -13l-7 -8h-9l1 -7l-1 -3l-5 -4l-6 -4l-21 -19l-11 -3l-5 4l-2 -11l-3 -3l-11 -1l-2 -10l-11 -10l-4 -3l-22 -17l-8 -3l-13 -3l-7 1l-13 10l-12 10l-8 14l-12 28v2l6 25l4 21l11 18l1 18 l6 12l7 23l8 16l8 8l17 37l11 20l15 32l7 8l6 8l-4 8l9 8v11l14 17l7 17l10 17l3 13l7 6l10 23l11 15l10 24l3 7l-12 11l-10 -3l-11 2l-18 -13l-42 -10l-31 -18l-17 -6l-8 -11l-19 1l-5 -14l-3 -5l-2 -2l-14 -5l-20 -22l-24 -18l-16 -34l-31 -20l-12 -6l-10 7l-16 7l-3 2 l-3 3l-1 5l6 18l43 43l29 18l13 12l32 15l32 23l14 5l18 9l18 15z" />
<glyph unicode="X" horiz-adv-x="562" d="M273 650l11 7l8 2l3 -1l12 -9l6 7l2 6l10 4h8l19 4l11 2l7 -1l30 -6l14 -2l17 -7l10 -4l9 -6l7 -13l8 -24l-3 -13l1 -17l-3 -6v-17l-8 -19l-2 -16l-7 -10l4 -15l-1 -15l11 12l19 19l18 12l9 15l34 25l24 28l19 15l12 11l4 1l3 -1l6 -5l4 3l-4 5l5 15l19 14l12 16l13 10 l20 4l26 -4l3 -2l8 -9l7 -6l3 -5l1 -6l-1 -8l-4 -9l-7 -9l-11 -5l-16 -4l-10 -7l-8 1l-9 -8l-10 -6l-3 -1l-9 2l-7 -17l-12 -5h-6l-8 -11h-10l-5 -8l-8 -12h-1l-18 -4l-11 -16l-10 -4l-6 -8l-11 -8l-4 -13l-7 -7l-9 -10l-11 -8l-5 -9l-11 -9l-9 -9l-5 -9l-5 1l-7 -12l-9 -5 v-18l-10 -6l-6 -3l-1 -2l-1 -3v-1l1 -14l-5 -23l-2 -40l-3 -13v-7l-9 -19v-13l-1 -9l4 -16v-1l-4 -12l-8 -12l5 -6v-8l3 -7l1 -19l4 -13l-5 -12l9 -6l4 -8l3 -4l2 -1l3 -1l7 1l12 -1l9 5l14 7l26 22l21 11l9 14l18 12l22 24l10 5l8 6l7 1l5 -1l5 -5l2 -9l-1 -7l-13 -22 l-4 -7l-11 -13l-4 -2l-14 -5l-18 -26l-5 -4l-4 -1l-15 -3l-20 -20l-7 -6l-3 -1l-11 -1l-23 -22l-5 -3l-2 -1l-6 2l-15 -8l-14 -4l-5 6l-14 -2l-11 10l-11 4l-6 5l-10 5l-7 10l-19 23l-2 5l-1 11v5l3 32l-3 10l7 29v1l-1 9l-2 12l12 5l-3 10l-3 13v8v23h-3l-3 -11l-4 -10 l-12 -12v-10l-9 -4l-11 -9l-8 -6l-10 -17l-8 -2v-10l-13 -7l2 -7l-7 -9l-19 -22l-6 -5l-3 -11l-11 -8l-5 -10l-8 -6l-16 -31l-11 -8l-1 -10l-2 -5l-2 -3l-10 -9l-6 -7l-13 -9l-24 -6l-16 4l-6 6l-5 14l-4 23l2 9l14 26l8 12l19 16l9 8l17 10l8 12l28 24l10 12l10 7l12 21 l17 18l5 9l9 9l7 5l7 2l7 4l3 3l9 21l37 36l18 24l8 7l6 6l1 4l3 15l4 9l1 9l4 10l-2 20l3 10h15l-7 12l-4 4v5l4 15l2 8v1l-2 9l10 10l-3 12l1 11v12l7 22l-3 14l3 25l-7 9l-7 10l-9 3l-9 3l-2 -1l-11 -3l-38 -2l-11 -7l-11 -2l-18 -12l-13 2l-11 -6l-25 -14l-12 -11l-5 -1 l-12 4l-11 -13l-7 -3h-14l-2 -13l-11 -4l-6 -6l-9 -7l-15 -25l-10 -4l-11 -9l-11 -5l-11 -2l-7 8l-12 8l-3 3l-5 13l-1 9l2 10l4 7l17 13l32 20l33 18l53 17l8 6l27 9l9 6l16 4l8 5l8 4l11 2h12z" />
<glyph unicode="Y" horiz-adv-x="505" d="M274 449l-3 -11l-14 -23l-4 -11l-10 -24l-9 -12l-12 -27l-10 -7l-3 -15l-6 -10l-3 -8l-6 -9l-2 -9l-12 -30l-3 -13l-6 -10l-8 -35l-5 -10v-15l-7 -4l3 -15l-4 -15l2 -12l-1 -13l10 -29l2 -3l4 -2l8 7l8 3l7 7l10 2l9 13l9 -1l7 10l7 6l20 27l13 7l27 35l14 12l6 12l39 52 l4 11l16 25l18 29l10 11l2 10l2 6l9 10l15 24l14 30l17 24l12 34l8 10l3 13l10 4l2 10l3 12l5 5l10 5l4 10l5 8l9 6l13 3l15 -4l25 -26l12 -34l-1 -7l-1 -2l-2 -2l-11 -6l-6 -4l-11 -17l-19 -42l-20 -58l-7 -8l-10 -32l-6 -9v-18l-4 -15l-14 -25l-3 -9l-5 -4v-12l-6 -5 l-2 -13l-3 -11l13 6l8 11l18 9l7 6l8 6l6 8l17 8l11 12l18 12l21 16l13 3l7 1l4 -1l3 -3l1 -6v-2l-1 -2l-11 -13l-8 -22l-4 -6l-2 -2l-9 -4l-12 -8l-23 -11l-12 -14l-7 -4l-8 -7l-8 -5l-9 -6h-6l-18 -19l-36 -31l-8 -17l-9 -16l-1 -22l-2 -9l-13 -10v-23l-2 -7l-16 -29v-17 l-10 -20l-8 -28l-5 -7l-13 -36l-7 -10l-4 -8l-14 -3l4 -11l1 -6l-1 -8l-9 -16l-8 -23l-10 -18l-7 -6l-18 -40l-14 -19l-12 -10l-12 2l-5 -16h-15l-11 -13l-10 -2l-11 -3l-17 25l-12 9l-5 10l-10 24l-1 21l-2 9l1 9l-2 9l4 20l7 8l-4 14l9 27l4 12h6l4 12l8 5l-1 13l9 11 l7 14l6 5l3 10l6 7l7 9h8l3 2l-3 10l16 17l7 6l10 13l15 -3l3 1l-4 14l5 6l4 14l4 2l8 -5l7 3l-4 8l1 5l15 11l6 2l5 9l2 10l11 3l12 12l9 9l6 18l5 14l10 6l-6 10l8 8v11l10 30l3 19l9 15l1 13l3 10l5 11l-7 -5l-4 -7l-10 -9l-26 -39l-9 -5l-1 -2l-5 -12l-4 -10l-13 -8 l-3 -18l-11 -1l-4 -15l-10 -2l-6 -11l-9 -14l-3 -3l-11 -6l-4 -6l-9 -6l-1 -12l-11 -5l-3 -2l-4 -16l-3 -7h-11l-8 -8l-12 -11l-14 -1l-5 -9l-11 2l-13 -2h-1l-7 2l-23 14l-15 14l-11 13l-2 6l-12 13l-3 9l-9 14l-1 14l-3 10l2 15l-1 10l8 33l-1 11l11 34l5 21l3 3l4 2l7 1 l2 2l-5 4l-1 3l1 4l5 12l2 13l12 17l4 14l10 18l8 23l10 12l8 20l10 12l7 13l10 12l6 16l13 15l11 29l8 11l13 17l10 1l-3 13l7 12l8 -2h4l-3 11l5 29l1 2l-2 5l-3 3l-4 2l-10 -2l-6 5l-4 -7l-7 -4l-6 3l-5 -2l-15 -8l-12 2l-6 -10l-16 -4l-5 -6l-14 -7l-26 -19l-10 -6 l-2 -10l-20 -22l-1 -26l-3 -4l-14 -10l-13 -3l-18 5l-7 6l-2 5v1l3 14l-1 12l2 8l7 8l21 19l8 5l9 6l13 5l12 12l103 47l9 7l13 3l8 4l6 1l11 6l22 3l27 1l11 -4l14 -14l7 -31l-3 -18l-2 -6l-18 -26l-11 -23l-20 -27l-4 -9l-10 -17l-7 -26zM201 -221l5 -19l-3 -6l6 -11l7 8 l5 7l17 29l6 5l1 18l7 6l5 6l4 13l1 10l12 16v12l1 5l14 26l7 13h8l-1 4l-5 2l-2 3l-1 3l1 2l9 10v9l3 7l1 9l5 8l4 18l6 4v8l7 17l5 22l3 10l-12 -12l-6 -9l-25 -27l-5 -8l-12 -17l-13 -21l-13 -20l-8 -18l-20 -40l-6 -17l-3 -21l-12 -12l5 -5l2 -5l-1 -4l-5 -9v-14z" />
<glyph unicode="Z" horiz-adv-x="527" d="M182 640l12 -3l26 -6l151 -74l20 -3l12 -4l20 -1l17 -3l10 2l7 -2l12 2l15 -2l14 3l8 -2l49 14l17 -1l9 1l38 13l30 14l4 -1l3 -3l1 -6l-4 -15l-5 -7l-40 -30l-8 -13l-35 -21l-20 -15l-10 -4l-10 -9l-14 -9l-7 -10l-16 -6l-30 -24l-9 -4l-52 -52l-17 -10l-4 -13l-16 -12 l-34 -47l-8 -3v-5l-7 -10l-18 -17l-3 -9l-25 -25l-15 -29l-7 -13l12 4l55 26l32 15l15 11l10 1l36 26l13 -1l8 5l6 3l5 7l2 3l4 2l14 3l13 7l14 2h11l7 -9l8 -7l2 -2l1 -5l-7 -29l-9 -19l-8 -8l9 5l23 14l15 5l30 21l32 16l10 7l8 2l7 4l2 1l7 -2l4 -4l2 -6l-1 -3l-8 -12 l-6 -12l-10 -9l-6 -5l-35 -9l-10 -13l-6 -4l-5 -1l-9 -1l-22 -16l-33 -14l-5 -7l-20 -3l-2 -11l-1 -6l-1 -1l-7 -9l-3 -10l-3 -7l-3 -2l-10 -3l-6 -15l1 -13l-12 -10l-8 -10l-8 -5l1 -8l-5 -7l-2 -8l-7 -3l-5 -11l-8 -13l-3 -9l-8 -1l-7 -27l-8 -7l-8 -15l-11 -19l-3 -12 l-4 -7l-5 -4l-8 -5l-7 -21l-10 -13l-13 -24l-14 -5v-12l-1 -5l-13 -14l-12 -22l-14 -22l-17 -20l-6 -10l-11 -5l-9 -12l-12 -2l-8 -7l-7 -1l-11 -4l-10 4l-13 7l-12 18l-4 16v1l1 14l-1 10l6 34l2 22l8 17l5 26l11 16l7 13l8 7l5 -5l-5 19l7 12l11 29l2 3l5 4l10 4l2 11l4 6 l14 6l10 5l-5 5l-1 5l1 4l2 2l19 22l9 13l14 6l10 17l28 17l28 23l11 6l15 7l6 10l47 27l7 17l6 8l4 9l-5 2l-8 -6l-31 -10l-11 -8l-15 -3l-37 -16l-13 -2l-50 -29l-21 -3l-18 -16l-36 -9l-32 -14l-6 -1l-6 1l-8 1l-7 -7l-9 5l-23 12l-3 5l-1 6l1 4l2 5l28 34l9 15l10 9 l27 33l20 9l2 15l8 14l11 12l13 11l6 11l10 7l7 9l16 14l102 87l28 22l22 15l67 45l25 18l36 21l8 8l-12 -2h-7l-16 -5l-27 -4h-2h-29h-3l-18 -2l-8 3l-21 -2l-15 3l-12 -1l-9 5l-10 1l-6 2l-9 -2l-13 6l-17 -1l-9 7l-18 4l-30 13l-18 6l-12 1l-8 7l-12 -1l-13 -2l-7 1 l-6 -5l-8 -1l-12 -3l-6 -5l-17 -18l-9 -9l-4 -7l-2 -13l1 -12l9 -11l10 -9l12 -3l10 -7l6 -3l10 -5l12 2l8 -8l11 3l17 -1l12 1l16 -5l10 -1l21 3l28 6l25 3l1 1l20 15l10 3l5 10l8 6l26 4l13 -2l6 -6l2 -7l-3 -10l-12 -12l-17 -11l-34 -5l-33 -11l-45 -3l-18 -5l-37 1 l-10 -1h-1l-8 7l-12 -3l-14 10l-21 2l-11 6l-21 1l-9 7l-12 5l-8 5l-2 3l-9 17l-7 10v7l-4 12v14l-1 8l2 10l-3 12l11 30l6 14l3 3l22 16l5 9l12 5l10 6l13 2l11 3l10 -2zM134 -245l4 -2l8 9l11 7l3 11l8 3l3 12l2 3l3 1l16 7l-1 16l17 23l15 29l7 4l9 6l5 12l11 22l5 14 l9 8l7 7l4 7l6 19l20 20l5 15l14 20l8 21l8 8l13 27l3 10l-9 -4l-12 -8l-9 -4l-20 -17l-10 -9l-7 -10l-9 -3l-14 -19l-10 -3l-5 -3l-1 -2l-4 -13l-11 -15l-7 -9l-10 -3l-8 -12l-14 -20l-5 -20l-11 -9l-3 -25l-13 -18l-4 -13l-1 -13l-5 2l-1 -10l-10 -12l2 -6v-2l-1 -4l-6 -9 l1 -27l-6 -16v-3z" />
<glyph unicode="[" horiz-adv-x="546" d="M178 117v7l1 11l4 14l4 11l4 14l5 11l5 7l4 13l4 8v9l4 6l5 9l7 15l7 12l3 10l12 17l12 15l4 5v3v13l4 6l8 10l-5 -2l4 9l6 8l7 8l10 15l4 4l1 8l4 6l3 1l4 7l5 8l7 11l13 19l7 9l4 3l7 3l6 5l1 4l4 8l7 9l13 19l16 19l12 15l10 11l1 7l6 6l7 4l9 9l9 10l5 7l6 5l4 6 l23 27l16 14l13 12l8 9l3 4l4 2l16 3l19 4l22 4l13 1l25 1l11 4l14 -1l22 -2h16l13 -4l11 -2l12 -3l7 -7l6 -7v-12l-3 -11l-8 -8l-6 1l-11 -1l-6 5l-6 -1l-12 3l-4 4l-4 4l-7 -2l-8 -2l-7 1l-7 3l-9 -1l-5 -1h-22l-9 1l-9 -5l-9 -3l-10 -2l-16 -5l-15 -15l-9 -5l-10 -7 l-2 -8l-7 -6l-7 -7l-6 -6l-3 -4l-5 -6l-4 -2l-8 -4l-2 -7l-3 -9l-3 -4l-6 -2l-7 -6v-5l-5 -8l-6 -6l-2 -3l-6 -13l-4 -4l-5 -2l-8 -5l-2 -5l-4 -8l-11 -10l-4 1l-4 -5l1 -7l-1 -11l-5 -7l-6 -8l-10 -14l-10 -18l-15 -25l-9 -15l-13 -14l-7 -7l4 -8l-1 -6l-3 -5l1 -5l-6 -13 l-4 -5l-7 -7l-3 -4l-1 -12l-7 -21l-7 -15l-6 -22l-2 -12l-8 -9l-6 -7l-9 -17l-4 -18l2 -8l-4 -18l-5 -15l-4 -16l-2 -18l-1 -9l1 -7l-1 -6l4 -7l3 -10l2 -4l5 -3l4 -2l4 -3l3 -2l7 1l6 3l8 3l10 -3l4 -2l10 3h18h4l7 1l9 -5l8 1l3 5l6 2l8 2l10 2l9 2h6l8 -10l-2 -11v-6 l-6 -16l-3 -7l-5 -10h-12l-6 2l-5 4l-6 2l-10 -4l-10 -1l-7 2l-1 1l-7 -1l-13 -2l-10 -4l-11 1l-8 13l-15 3l-12 -16l-10 -2l-10 -1l-6 3l-5 -2l-9 7l-11 1l-5 3l-3 9l-1 3h-8l-9 5l-3 4l-14 9l-2 11l1 8l-8 13v15l5 10l-4 14v8l2 6l2 6l3 5z" />
<glyph unicode="\" horiz-adv-x="401" d="M304 113l-1 5l-2 15l-5 56l-5 24v8l-4 35l-2 12l-2 16l-4 21l-5 20l-5 24l-4 13l4 17l-5 9l4 17l-9 5l1 12l1 16l-7 3l-14 26l-9 41l-14 43l-15 52l-7 15l-13 15l-2 11l-5 24l-1 13l2 30l6 20l11 16l10 4l8 -2l1 -1l10 -13l10 -15l2 -6l11 -25l21 -80l7 -15l15 -50 l11 -36l5 -18l2 -12l8 -33l4 -26l5 -13l-6 -11l5 -7l3 -11l9 -54l8 -22v-14l5 -18l-1 -18l2 -16l5 -10l-1 -9l1 -18l3 -20l7 -45l5 -24l3 -18l7 -24l5 -15l2 -11l7 -12l25 -26l7 -11l4 -25l-4 -14l-9 -8l-15 -5l-11 -2l-5 1l-13 2l-14 4l-8 5l-10 9l-2 4l-6 15l-5 10l-8 36 l-4 14l-4 36l-3 21l-2 14z" />
<glyph unicode="]" horiz-adv-x="546" d="M74 19l8 6l8 -2l8 -1l7 1l8 -2l9 -3l5 6l8 1l11 1l13 1l25 16l9 13l4 4l-4 8l7 13l6 9v11l1 17l4 20l6 15l2 9l2 10l8 14l2 8l5 7l7 7v4v6v3l4 9l4 4l1 10l8 12l6 9l9 16l15 21l9 8l-1 5l-2 10l2 10l10 12l6 10l1 6l6 5l8 6l8 8l1 10l6 11l13 15l7 10l5 5l4 11l7 9l9 7 l6 4l7 2l4 7l1 7v6l7 7l9 13l9 10l1 6l4 4l8 9l11 7l4 12l7 13l9 8l7 9l8 10l6 4l9 10l5 4l9 8l4 11l-5 10l-5 3h-3l-6 -1l-9 -4h-5l-10 2l-11 1l-11 -5l-3 -2l-2 1l-8 3l-8 1l-13 -3l-11 -1l-10 -1l-10 -4l-12 -2h-16h-9h-4v6l-2 3l2 10l6 9l4 7l2 6l11 5l8 2l14 1l16 -2 l12 2l9 -2l11 2l13 2l18 1l6 -3l16 1l10 -2l9 3l15 2l14 -7l13 -1l7 1l5 -5l3 -6l4 -3l2 -5l-3 -3l1 -2l3 -3l3 -6l1 -11l-3 -9l-3 -6l-13 -14l-14 -14l-9 -9l-3 -7l-5 -1l-7 -3l-4 -4v-6l-3 -5l-7 -6l-11 -7l-2 -7l-1 -9l-4 -5l-5 -5l-5 -5v-6l-4 -7l-11 -5l-6 -7l-6 -8 l-3 -6l-6 -1l-4 1v-4l2 -7l-5 -9l-7 -7l-4 -1l-1 -4l3 -4l-1 -8l-5 -7l-7 -3l-8 -7l-6 -5l-1 -7v-7l-3 -13l-4 -8l-8 -8l-6 -3v-5l-2 -8l-7 -11l-5 -8l-2 -14l1 -9l-6 -10l-5 -4l-6 -5l-5 -6v-4v-5v-1v-7l-9 -15l-6 -16l-7 -29l-4 -8l-4 -7v-3v-6l-4 -7l-8 -13l-3 -10 l-4 -26l-9 -45l-4 -19l-9 -25l-1 -9l-2 -11l-2 -9l-16 -13l-16 -9l-22 -5l-17 -1l-13 3l-11 -2l-8 -5h-31l-9 3h-6l-7 -4h-4h-6l-13 2l-17 -3h-14l-12 -2l-10 5l-10 1l-11 -1l-10 3l-3 5l3 1l-5 1l-5 4l1 6v7h4l-1 8l5 5l8 6l4 6l10 5l9 1l16 -5l13 -4z" />
<glyph unicode="^" d="M433 396h-68l-125 248l-126 -248h-69l166 316h57z" />
<glyph unicode="_" horiz-adv-x="500" d="M0 -133h500v-67h-500v67z" />
<glyph unicode="`" horiz-adv-x="226" d="M150 399l9 -11l1 -4l-1 -5l-3 -2l-15 -3l-11 1h-14l-9 10l-12 12v10l-9 14l-4 8l-3 5v13l-12 25v2l2 10l10 10l16 4l5 -1l11 -3h16l5 -4l3 -8l7 -41l8 -27l-2 -11z" />
<glyph unicode="a" horiz-adv-x="411" d="M9 130h5l-2 11l4 9l21 30l2 7l13 12l8 12l17 13l18 19l32 21l29 20l17 7l17 10l23 7l17 7l10 -5l9 5h3l11 -3l16 -13l4 -11l2 -13l5 -11l8 7l10 15l12 10l20 5l12 -3l8 -7l3 -16l-4 -23l-13 -26l-12 -17l-11 -32l-5 -8v-16l-1 -16l1 -6l2 -2l3 -1l3 1l7 4l16 16l10 6 l17 17l5 1l8 13l16 10l11 13l8 7l4 1l4 -1l5 -6l3 -11l-3 -13l-8 -16l-4 -17l-7 -6l-21 -22l-9 -3l-11 -16l-12 -4l-6 -6l-10 -3l-5 -9l-15 -6l-25 -8l-11 2l-9 5l-9 2l-6 13l-7 11v5v2l2 11l-5 5l1 11l-1 13v1l1 7l2 11l-2 3l-10 -8l-11 -3l-6 -15l-9 -6l-4 -5l-10 -5 l-9 -7l-8 -1l-5 -9l-5 -6l-36 -27l-12 -12l-15 -9l-41 -24l-18 -3l-28 7l-16 12l-3 5l-4 16l-6 15v12l1 9v15zM207 173l21 15l4 9l8 6l17 17l9 9l8 12l-10 -3h-7h-8l-30 5l-2 -1l-11 -5l-21 -6l-30 -17l-10 -4l-8 -8l-28 -21l-5 -10l-12 -12l-4 -9l-13 -7l-4 -15l-9 -13 l-1 -6v-4l1 -13l2 -4l2 -1l5 -1l21 7l49 27l6 8l45 27l8 8l5 3z" />
<glyph unicode="b" horiz-adv-x="266" d="M20 146l-7 14l-2 15l5 26l8 11l-3 11l-2 11l9 33l2 12h8l-1 16l13 23l4 20l8 12l15 40l11 8l-1 11l4 6l2 8l9 5l4 13l10 14l8 19l11 9l7 17l10 3l1 3l-2 6l4 8l11 17l10 8l37 59l31 29l9 17l6 1l6 9l12 12l31 20l8 2l9 -3l11 -12l7 -17l5 -15v-1l-7 -16l-1 -13l-4 -14 l-1 -12l-6 -15l-3 -14l-12 -24l-3 -7l-7 -8v-12l-5 -7l-5 -13l-9 -14l-5 -12l-6 -8l-2 -11l-12 -17l-11 -23l-11 -13l-4 -15l-10 1l-1 -16l-7 -5l-8 -14l-10 -5l-3 -5l1 -9l-9 -11l-4 -7l-3 -2l-2 -1l-9 1l-1 -18l-1 -7l-1 -2l-9 -7l-31 -44l-10 -4l-5 -2h-3l-11 8l-10 7 l-2 -12l-4 -18l-7 -12l5 -10l-2 -10v-13l-3 -11l3 -23l-1 -19l3 -8l4 -19l5 -1h2l2 1l7 8l9 6l16 17l6 17v12l-12 3l-13 3l-2 2l-3 14l2 9l5 8l9 10l6 10l11 10l6 3l14 2l15 8l20 -4l17 5h2l6 -1l6 -3l4 -6l4 -10l12 -1l12 1l4 3l31 23l25 16l6 4l10 2l9 10l2 1h5l6 1l3 -1 l2 -2l1 -3l-1 -8l-4 -17l-9 -7l-12 -17l-10 -8l-6 -10l-5 -2l-7 -8l-8 -8h-7l-7 4l-4 -5l-2 -10l-16 -11l-7 6l-9 -6l-6 -10l-13 -3l-12 -2l-14 1l-6 -12l-18 -32l-3 -2l-17 -9l-20 -25l-10 -3l-32 -11l-12 -1h-9l-16 4l-13 8l-11 10l-11 29l-8 29v6l1 9l2 4zM98 281l17 11 l8 18l11 7l9 13l16 20l10 14l8 9l17 25l12 10l4 14l8 14l9 8l2 6l10 10l4 12l40 69l1 10l6 11l6 22l7 18v9l1 12v12l-9 -7l-6 -15l-18 -18l-20 -34l-10 -13l-7 -15l-37 -49l-13 -31l-20 -23l-3 -7l-1 -11l-6 -2l-3 -3l-6 -11l-14 -31l-3 -9l-8 -9l-6 -15l-6 -11l-3 -9 l-6 -18z" />
<glyph unicode="c" horiz-adv-x="316" d="M16 180l2 11l4 13l2 3l9 8l7 9l9 4l1 12l7 6l6 9l10 5l10 9l11 8l8 8l11 6l14 12l7 4l8 2h12l15 9h1l6 -1l10 -3l10 8l6 1l12 -3l10 -5l14 7l19 -10l8 -16l4 -19l-2 -7l-7 -8l-13 -10l-13 -4h-5l-7 8l-11 1l-15 4h-2l-10 -3l-10 -4l-4 7l-4 -1l-4 -7l-7 -6l-5 -1h-1l-4 1 l-7 -8l-11 -6l-12 -11l-17 -8l-5 -4l-6 -12l-16 -24l-6 -9l-10 -7l-4 -5v-16l-7 -8l-1 -12l-3 -16v-2l1 -7l7 -6l12 -3l9 1l6 2l19 1l27 8l10 3l6 8l5 5l5 2h11l7 8l27 12l13 12l14 3l17 12l12 5l9 8l12 12l11 5l8 7h10l8 12l18 13l9 6l3 1l5 -1l3 -3l1 -4l-3 -9l-6 -1l5 -9 l1 -6l-2 -9l-3 -4l-11 -6l-2 -4l-1 -10l-9 -4l-8 -5l-11 -9l-10 -9l-8 -9l-4 4l-7 1l-4 -9l-10 -9l-32 -21h-9l-5 -9l-13 -11l-6 -5l-4 -2l-2 -1l-9 1l-9 -7l-8 -2h-1l-5 -4l-7 -8h-4l-9 7l-5 -3l-1 -7l-3 -4l-11 -3l-17 -3h-3l-8 4l-9 5l-20 -6l-12 10l-11 5l-10 6l-4 12 l-11 7l-5 6l-2 4l-5 18l-4 11l-1 5l2 7l8 21l7 23l4 7z" />
<glyph unicode="d" horiz-adv-x="419" d="M-17 120h5l-2 16l18 38l2 7l10 17l12 26l18 22l14 19l17 12l8 12l16 10l9 8l9 2l15 12l9 4l14 7h7l10 4l10 -4l9 6l8 2l8 -2l14 -11l7 -9l5 -14l4 -10l9 9l4 10l10 16l14 34l7 11l4 17l17 28l7 23l8 5l4 12l12 20l7 17l3 5l2 2l15 8l-1 11l1 5l9 13l17 20l21 32l24 29 l17 18l9 2l20 -5l17 -17l2 -9l-1 -6l-5 -16l-1 -12l-21 -47l-16 -44v-1l-7 -6l-7 -14l-13 -16l-1 -14l-7 -5l-7 -17l-15 -23l-6 -12l-7 -1l-3 -4l-2 -19l-2 -3l-4 -2l-8 -1l-7 -21l-3 -2l-18 -7l1 -17l-16 -21l-5 -12l-5 -5l-3 -9l-7 -42l-5 -29v-13l-1 -6l6 -21l-2 -11 l7 -9l9 7l23 11l8 7l10 6l8 12l10 4l8 9l35 30l10 14l21 16l5 1h1l7 -5l-3 -11l3 -20v-2l-1 -5l-7 -8l-12 -9l-5 -12l-14 -8l-10 -11l-12 -8l-6 -13l-11 -1l-4 -9l-6 -7l-6 2l-13 -16l-13 -1l-17 -10l-12 -1l-12 -3l-9 2l-25 8l-7 5l-16 19l-1 3l-3 14l-7 19l-5 40l-1 4 l-1 2l-6 3l-1 -7l-4 -2l-5 -12l-7 -3l-4 -3l-3 -4l-10 -14l-16 -15l-3 -7l-6 -11l-10 5l-4 -13l-2 -9l-1 -1l-10 -3l-2 -10l-7 -3l-9 -5l-4 -10l-4 -8l-1 -1l-14 -2l-6 -10l-20 -14l-27 -6l-24 5l-13 7l-3 4l-7 17l-7 11l-3 27l-2 7zM182 202l8 6l3 10l9 8l13 19l10 13l5 12 l-11 4l-25 -8l-17 -1l-22 -12l-12 1l-7 -11l-10 -7l-12 -11l-11 -3l-6 -12l-8 -11l-13 -9l-5 -14l-9 -11l-5 -11l-8 -12l-4 -15l-8 -17l-1 -4l3 -12l7 -7l5 -1l5 1l20 12l39 31l40 40l16 11l1 2l3 10zM344 380l7 5l6 13l9 11l7 10l10 5l7 14l37 52l15 34l6 6l3 11v14l-6 -2 l-8 -16l-6 -5l-8 -15l-5 -3l-9 -20l-6 -11l-4 -11l-7 -6l-7 -8l-8 -7v-11l-7 -6v-12l-14 -14l-8 -16z" />
<glyph unicode="e" horiz-adv-x="291" d="M76 278l21 18l25 10l15 9l7 -1h3l13 3l9 3l20 1l11 1l8 -3l21 -4l11 -5l10 -12l2 -9l-3 -13l-11 -18l-18 -15l-10 -3l-7 -9l-8 -4l-10 -8l-13 -1l-2 -1l-4 -5l-7 -11h-9l-9 -6l-2 -7l-11 -5l-13 -11l-8 -6l-10 1l-3 -6l-1 -10l-7 -2l-6 -5l-6 2l-10 -10l-13 -1l-2 -11 l-5 -18l3 -9l3 -3l4 -1l29 1h15l23 10l11 1h11l9 11l10 5l11 2l5 9l4 3l4 3l15 4l9 11l15 6l9 9l14 4l9 11l13 9l6 4h4l3 -7l1 14l13 11l12 5l6 13l9 5l7 4h1l3 -1l2 -2l1 -2v-1l-3 -13l2 -15l-9 -13l-5 -19l-7 -3l-11 -10l-8 -3l-15 -18l-11 -12l-8 -6l-4 5l-6 -2l-2 -8 l-2 -4l-2 -2l-14 -8l-7 -6l-12 -1l-10 -14l-20 -7l-29 -16l-8 -2l-35 -13l-11 -2l-6 1l-9 6l-11 -3l-16 -2l-6 2l-8 5l-18 9l-6 15l-9 -1l-11 36l-13 5l-2 4l-1 7l3 15l5 10l11 11l7 26l4 4l3 11l6 8l8 14l4 10l4 5l8 5l10 6l2 5l2 10v2l4 3zM77 195l4 -1l9 6l18 7l21 18 l8 4l12 10l7 5l3 6l8 2l7 9l6 5l12 8l-3 5l-5 2l-12 -4l-14 -2l-9 -5l-18 -7l-12 -9l-18 -13l-5 -4l-2 -3l-6 -15l-8 -13z" />
<glyph unicode="f" horiz-adv-x="211" d="M-86 -131l2 12l13 36l4 15l9 10l3 14l8 25l15 28l13 35l12 14l1 7l-9 5l-10 9l-1 2l1 2v1l20 10l10 6l2 10l16 21l2 19l5 7l6 16l10 12l1 11l-7 -2l-11 -15h-5l-9 -8l-14 -18l-10 -4l-11 -13l-4 -1l-4 -1l-6 1l-5 5l-1 4l2 17l3 21l12 11l11 12l35 28l6 7l12 11l7 12l9 6 l5 9l30 28l6 9l17 35l10 15l15 52l11 27l3 13l12 29l8 23l7 12l5 14l6 8l3 14l6 8l10 30l13 21l9 17l12 10l9 2l9 -3l10 -10l7 -22l3 -27l1 -14l-1 -2l-7 -44l-5 -18l-2 -1l-10 -5l-2 -1l-1 -2v-2l1 -2l8 -3l-5 -12l-6 -10l-6 -7l2 -5l-1 -6l-6 -10l-15 -22l-12 -25l-22 -26 l-10 -24l-16 -16l-2 -13l-7 -11l-9 -25l-7 -9l-9 -26l-5 -13l-9 -3l-3 -3l1 -16l-8 -15l-6 -20l-11 -12l-3 -17l-2 -10h3l2 3h12l6 7l8 5l5 5l7 2l8 8l8 -4l5 2v10l1 2l11 8l15 10l12 6l13 11l11 4l7 7l15 3l13 10l19 15l9 8l3 1l5 -2l5 -4l1 -8l-1 -8l-7 -9l-8 -6l-2 -12 l-4 -7l-7 -2l-6 -8l-6 2l-9 -11l-7 -1h-1l-7 -6l-15 -9l-27 -20l-14 -12h-9l-8 -10l-11 -5l-40 -32l-8 -1l-9 -13l1 -5l2 -3l8 -4l9 -13l7 -5l21 -39l5 -16l1 -13l-2 -21l-4 -9l-7 -8l1 -22l-7 1l-5 -4l-1 -16l-9 -8l-3 -16l-4 -6l-10 -8l-10 -7v-12l-2 -7l-3 -3l-6 -4 l-13 -17l-6 -4l-5 -9l-20 -18l-6 -10l-5 -2l-6 -10l-22 -18l-19 -21l-7 2l-4 -9l-8 -6l-6 -8l-7 -4l-14 -13l-13 -6l-6 -6l-8 -8l-9 4l-9 11l-5 7l-1 14l-6 9l-2 11v13l22 60l7 24l2 5l1 1l6 4v12l5 18l4 14zM-67 -272l6 -1l5 11l11 4l3 10l7 4l3 7l15 8l5 11h10l5 16l6 6 l8 14l9 6l3 14l9 9l4 9l7 8l-3 12l7 9l7 11l5 12l14 30l2 16l7 14v24l-6 14l-10 23l-5 4l-10 7l-3 1l-5 -2l-10 -8v-17l-1 -2l-3 -4l-9 -6l1 -10v-12l-14 -31l-5 -17l-4 -5l-3 -1h-8v-17l-4 -23l-1 -11l-10 -12l-4 -11l-5 -9l-3 -13l-5 -10l-7 -20l-3 -11l-13 -39l-2 -10z " />
<glyph unicode="g" horiz-adv-x="338" d="M82 13l11 3l11 5l9 1l19 14l11 3l22 8l41 8l11 21l9 16l3 14l17 29l-1 9v5l3 5l7 7l-2 13l3 7l5 9l-10 -4l-16 -12l-7 -2l-10 -12l-7 -3l-4 -7h-3l-6 -7l-5 -5l-9 -3l-10 -1l-12 -18l-12 -5l-7 -8l-14 -2l-3 -14l-22 -5l-9 -11l-9 -2l-41 -23l-14 -1l-12 6l-18 13l-8 25 l-2 11l-10 -3l-7 -2l-5 1l-4 4l-2 10l2 9l6 8l11 8l19 21l6 7l39 37l27 27l36 23l21 15l28 11l32 12l24 1l26 14l14 2l9 5h11l8 -2l4 -3l8 -17l3 -11l7 9l9 7l8 2l6 -2l7 -7l6 -29l-3 -26l-2 -5l-17 -29l-11 -40l-8 -18l-11 -28l-8 -8v-9l-7 -16l-1 -8l-8 -15l12 -7l20 -22 l4 -13l-3 -11l-11 -10l-21 -7l-7 2l-17 8l-14 2v-7l-7 -6l-12 -23l-6 -9l-9 -2l-5 -11l-4 -14l-6 -10l-6 1l-5 -8l-22 -36l-16 -6l-3 -12l-10 -9l-10 -11l-11 -5l-3 -10l-4 -7l-4 -3l-29 -21l-10 -12l-22 -13l-20 -16l-13 -5l-13 -6l-4 -1l-11 3l-18 19l-7 28v3l4 21l2 16 l9 26l16 38l24 33l7 15l12 12l4 7l10 7l15 16l26 21l7 7zM-25 -199l10 3l30 12l18 16l18 8l7 9l9 7l3 9l12 8l8 7l9 10l5 10l5 3l4 9l8 3l2 1l4 10l11 20l12 15l10 19l9 11l-2 3l-14 -2l-7 5l-8 -9l-11 -2l-13 -7l-12 -3l-20 -11l-9 -3l-8 -7l-20 -13l-10 -17h-11l-4 -11 l-20 -18l-11 -23l-7 -10l-2 -13l-7 -15l-3 -16l1 -7zM42 92l5 -2l11 5l16 7l12 10h18l6 8l11 2l9 10l18 10l6 9h5l6 8l16 8l14 17l7 5l6 7l8 3l10 14l10 5l3 2l2 4l6 15l-11 -1l-12 -6h-9l-15 -8l-9 -3l-13 -10l-10 -4l-9 -9l-4 -3l-4 -1l-12 -3l-8 -10l-5 -2l-11 -10 l-13 -4l-4 -7l-12 -7l-10 -13l-7 -4l-10 -8l-13 -23z" />
<glyph unicode="h" horiz-adv-x="447" d="M30 227l8 12l16 13l15 16l14 13l14 25l6 17l5 5l5 10l6 3l1 12l3 9l12 19l57 120l16 22l33 62l18 21l7 14l7 8l10 15l7 4l8 2l9 -2l9 -7l10 -19l5 -14l-2 -11l-5 -15l-3 -22l-3 -17l-10 -9l-1 -11l-4 -15l-2 -12l-15 -23l-6 -23l-10 -9l-8 -20l-13 -17l-6 -11l-30 -40 l-7 -8l-10 2l-8 -2l-1 -1v-2v-13l-1 -3l-2 -5l-15 -16l-11 -19l-8 -10l-8 -23l-15 -25l-8 -23l-8 -11l-4 -11l-5 -13l8 1l7 10l7 9l18 17l10 12l10 7l5 1l5 2l2 9l12 3l7 14l10 5l12 13l44 24l39 10l18 -2l19 -7l14 -13l4 -17v-7l-8 -35l-2 -20l-10 -23l-6 -26v-3l1 -15v-9 l6 -4l10 10l9 2l14 18l24 14l8 13l9 5l17 13l24 18l8 4l2 1l4 -1l3 -3l2 -5l-1 -1l-4 -14l-3 -17l-10 -18l-6 -11l-9 -3l-7 -9l-20 -11l-6 -8l-7 -6l-6 3l-1 1l-3 -1l-2 -1l-6 -15l-10 -7l-5 -7l-12 2l-3 -5v-9l-27 -16h-4l-17 -3l-8 6l-12 4l-3 2l-2 3l-6 15l-6 13v10l-1 7 l3 10l-2 26l4 13l4 26l6 20l1 4l-1 11l-1 12l-14 7h-6l-10 -15l-4 -2l-9 3l-7 -9l-6 -7l-2 -1l-10 -3l-10 -10l-9 -2l-11 -10l-6 -4l-4 -8l-8 -1l-6 -10l-11 -4l-3 -8l-12 -8l-6 -12l-11 1l-8 -3l-4 -16l-18 -19l-16 -18l-9 -6l-4 -11l-5 -7l-13 -9l-7 -6l-11 3l-7 9l-7 15 l3 12l-1 11l5 18l12 28l10 26l5 13l-15 -9l-8 -6h-3l-4 1l-4 4l-2 10l2 16l6 17l12 13z" />
<glyph unicode="i" horiz-adv-x="308" d="M6 216h6l13 9l11 15l22 13l14 13l15 1l6 9l11 6l10 10l17 11l15 8l5 1l14 -4l17 -14l10 -12l4 -16l-4 -22l-10 -28l-7 -23l-6 -6l-5 -10l-5 -6l2 -14l-6 -9v-22l-6 -7l2 -3l8 2h14l6 8l11 5l6 6l24 11l75 57l8 -2l3 -3l1 -5l-4 -13l-7 -14l-7 -16l-8 -9l-6 -9l-8 -5 l-11 -9l-12 -9l-25 -23l-14 -7l-5 -8l-13 -3l-7 -7l-7 -5l-9 -3l-11 -1l-10 -9h-12l-8 -2h-1l-12 5l-6 4l-10 9l-2 4l-1 20l-4 16l-2 14l1 10l7 24l2 15l4 4l7 23l8 10l2 13l9 16l-3 5l-4 1l-11 -7l-7 2l-8 -7l-7 -2l-9 -6l-8 3l-4 -3l-4 -13l-2 -1l-14 -5l-11 -4l-5 -12 l-9 -8l-6 -6l-6 -1l-6 2l-4 4l-1 5v2l2 19l1 10zM239 506l10 -4l11 -8l9 -10l2 -9v-3l-2 -13l-3 -18l-1 -2l-11 -8l-7 -3l-5 -1l-19 8l-10 9l-5 26v2l3 20l4 5l12 5l11 4h1z" />
<glyph unicode="j" horiz-adv-x="204" d="M69 85v11l15 44l-1 14l6 12l9 24l3 5l5 30l4 15v11l-13 -8l-18 -13l-10 -5l-7 -11l-14 -11l-4 -9l-23 -14l-2 -10l-4 -4l-6 -2l-8 2l-8 9l-5 16l1 12l7 7l9 11l12 7l10 10l18 14l9 11l13 11l10 8l10 4l15 9l24 23l12 8l6 7l6 4l5 1l13 -5l19 -18l6 -22v-4l-15 -46l-5 -34 l-5 -8l-2 -11l-5 -9l-3 -21l-14 -44l-9 -33l-13 -28l-2 -15l-1 -15l-7 -5l-5 -25l10 3l31 7l9 3l59 6l34 4l3 -1l14 -4l14 -4l9 -7l11 -17l4 -20l-4 -16l-5 -5l-16 -4l-12 -1l-7 2l-2 4l-8 15l-4 4l-5 2l-23 3l-11 7l-14 3l-12 4l-14 -3h-14l-25 -7l-9 3l-16 -8l-12 -5 l-4 -3v-2l-1 -14l-5 -6l-3 -10l-9 -8l2 -10l-2 -8v-6l-19 -25l1 -21l-10 -11l-6 -20l-7 -7l-3 -12l-11 -17l-8 -27l-6 -5l-4 -11l-2 -10l-5 -4l-4 -11l-7 -9l-7 -19l-11 -11l-4 -10l-22 -34l-14 -15l-25 -18l-9 -7l-8 -3l-2 1l-6 3l-7 3l-8 11l-7 7l-6 12l-5 8l-1 22v4v17 v20l10 34l3 15l8 15l1 11l9 12l8 25l7 12l4 11l11 12l10 15l13 8l17 30l11 14l17 14l9 11l30 21l16 16l12 8l11 36l8 18l2 17l7 16l2 10zM169 531l13 2l12 2l18 -6l19 -19l4 -11l-1 -2l-6 -11l-9 -15l-1 -2l-2 -1l-18 -3l-11 2l-5 3l-9 15l-8 17l-1 8l3 16zM-120 -340l8 8 l19 10l9 11l7 1l-1 12l27 53l6 9l4 2l-4 7l4 14l2 12l5 7l10 25l4 9l19 50l10 24l3 14l-8 -7l-34 -32l-11 -7l-8 -13l-28 -33l-18 -40l-15 -29l-2 -14l-9 -20l1 -18l-7 -14l-1 -11l3 -20z" />
<glyph unicode="k" horiz-adv-x="439" d="M-18 181l9 16l6 5l4 10l5 3l6 11l26 25l22 32l28 32l7 16l9 14l4 10l7 8l10 24l7 16l6 15l11 18l5 13l8 9l5 10l3 12l11 17l7 22l4 10l12 4l-2 10l-1 1l1 3l2 3l6 6l27 42l12 10l15 5l9 -2l3 -3l4 -12l6 -14l1 -10v-15l-3 -30v-7l-16 -39l-9 -25l-15 -23l-14 -27l-11 -11 l-8 -6l-4 -12l-12 -16l-6 -12l-15 -14l-14 -22l-15 -18l-6 -12l-13 -29l-3 -13l-4 -8l-5 -5l-8 -6l-2 -12l-6 -17l1 -11l-8 -3l-1 -16h3l3 8l9 6l10 4l4 11l14 16l28 27l7 8l11 2l-1 9l23 22l11 9l11 9h11l6 10l18 13l24 9h1l9 -1l11 -1l14 -8l11 -9l8 -14l5 -23v-3l-5 -11 v-12l-6 -7l-5 -10l-8 -8l-10 -10l-7 -5l-5 -5l-13 -5l-8 -7l-24 -11l-8 -6l-8 -7l6 -10l13 -24l7 -9l17 -9l11 -2l10 6l11 5l12 4l8 9l23 17l6 7l5 3l5 2l10 1l5 10l14 7l8 11l10 4l13 13l6 3l5 1l5 -1l2 -3l1 -2v-1l-4 -15l-1 -12l-6 -15l-4 -10l-10 3l-13 -11l-6 -11 l-15 -5l-26 -26l-14 -8l-6 -11l-11 -6l-19 -13l-6 -3l-2 -1l-5 1l-10 -10l-11 -2l-7 -4l-13 -3l-7 1l-16 4l-1 1l-5 4l-9 4l-7 16l-12 12l-20 40l-5 10l-10 4l-5 5l-1 7l2 8l3 5l17 13l4 7l9 3l29 23l22 8l6 7l2 6l3 21l-1 2l-1 2l-3 1l-1 -1l-11 -6l-8 -7l-10 -3l-4 -8 l-5 -5l-3 -1l-14 -3l-8 -13l-13 -1l-8 -15l-13 -7l-5 -11l-21 -19l-6 -8l-8 -3l-8 -13l-6 -1l-3 -11l-4 -6h-8l-4 -13l-14 -14l-8 -14l-20 -16l-17 -11l-9 4l-11 8l-3 5l-1 4l1 20l1 13l13 32l8 22l16 29l1 2l-1 2l-1 2l-2 1h-3l-19 -20l-19 3z" />
<glyph unicode="l" horiz-adv-x="240" d="M15 144l7 1l-6 13l1 11l-2 16l12 37l-2 9v2l1 6l2 5l10 17l21 59l8 17l14 23l4 8l8 6l-2 10l8 14l10 16l13 26l8 5l8 14l8 7l5 10l6 10l10 1l4 10l3 14l6 8l4 8l11 14l13 19l21 20l3 10l5 9l5 4l9 5l6 5l7 2l1 10l7 10l16 11l19 4l23 -6l20 -20l6 -19v-1l-1 -1l-8 -14 l-8 -25l-7 -6l-1 -17l-9 -8l-2 -6v-12l-8 -11l-9 -19l-5 -9h-6l-1 -11l-10 -16l-5 -12l-12 -17l-9 -14l-6 -6l-4 -13l-10 -13l-14 -28l-10 -5l-4 -22l-13 -8l-5 -9l-8 -13l-2 -9l-10 -4l-4 -10l-7 -3l-3 -10l-8 -12l-24 -24l-6 -16l-4 -5l-4 -2l-6 -1l-14 3l-10 6l-2 -9 l-3 -7v-14l-6 -30l3 -11v-1v-11l3 -16l6 -9l2 -2h11l3 -4l31 18l9 -4l6 7l-2 8l3 5l9 3l7 6h10l3 5l2 12l14 6l9 19l12 2l11 17l6 8l4 2l8 3l5 3l3 5l2 11l8 5l7 5h1l7 -5l-1 -16l4 -14l-9 -13l-1 -19l-10 -5l-5 -9l-10 -5l-10 -14l-11 -3l-8 -15l-12 -7l-6 -10l-5 -9l-7 1 l-7 -7l-7 -5l-7 -8l-12 -4l-5 -7l-9 -3l-7 -5h-13l-5 -6h-10l-8 -2l-2 4h-9l-11 5l-11 -4l-11 8l-7 6l-7 12l-6 8l-2 17l-11 19zM100 271l8 2l6 9l12 9l4 10l8 8l8 8l3 3l2 1l7 -1l3 19l13 15l6 12l20 18l7 11l6 3l4 8l5 6l2 12l13 14l6 11l8 7l4 10h8l3 18l16 26l9 22l7 8 l1 12l3 12l-3 11l-14 -8l-5 -15l-11 -5l-9 -20l-8 -7l-6 -11l-15 -13l-27 -41l-12 -13l-1 -1l-7 2l3 -13l-8 -8l-3 -5l-8 -11l-4 -12l-6 -12l-10 -2l-2 -13l-28 -53l-12 -34z" />
<glyph unicode="m" horiz-adv-x="631" d="M156 226l8 8l16 11l17 16l18 6l14 13l16 13l17 9l11 -2l8 9l4 2h6l8 -1l3 -2l11 -10l9 -7l5 -10l2 -8v-1l-1 -20l3 -16l-2 -16l2 -12l-3 -28l4 -5l8 8l6 1l9 9l8 4l6 9l8 4l24 26l22 13l7 7l6 3l9 8l7 -2l9 7l5 2l6 1l19 -5l17 -18l3 -9v-1l-1 -11l3 -24l-3 -11l8 -15 l-5 -6l1 -12l-2 -28l5 -9l10 2l10 6h11l3 14l2 2l7 2h11l6 10l10 10l19 17l8 4l4 1h1l10 -3l-1 -11l4 -17v-1l-1 -2l-8 -9l-13 -11l-18 -22l-13 -3l-8 -12l-24 -14l-15 -16l-16 -11l-10 -7l-4 -1l-29 12l-16 14l-7 17l-2 10l5 9l-9 8l-2 5v3l1 25l1 36l2 10l-1 5l-2 2l-6 2 l-8 -8l-9 -5l-6 -11l-8 -6l-7 -8h-5l-5 -3l-2 -6v-8l-11 -8l-6 -8l-6 -9l-9 -4l-5 -8l-5 -8l-3 -3l-7 -5l-2 -1l-5 -8l-14 -21l-11 -8l-6 -1l-5 1l-16 20l-11 21l1 27l-4 15l4 12v20l3 6l-2 37l1 17l-1 5l-3 3l-3 1l-5 -1l-8 -5l-20 -17l-28 -23l-8 -13l-2 -10l-8 1l-8 -12 l-5 -9h-1h-11l-8 -9l-4 -17l-12 -7l-4 -8l-6 -8l-3 -3l-10 -6l-10 -10l-17 -26l-8 -6l-2 -11l-2 -3l-4 -3l-8 -1l-11 2l-10 12l-6 17l-3 27l2 12l18 27l27 34l18 27l6 11l-1 10l-3 3l-12 -3l-9 -6l-11 -4l-7 -8l-12 -9l-11 -14l-5 -9l-6 -2l-15 -5l-7 11l-3 12l8 25l8 11 l37 25l18 17l17 10l10 3h7l28 8h1l11 -3l9 -9l3 -12l1 -26v-11z" />
<glyph unicode="n" horiz-adv-x="520" d="M65 253l7 8l10 4l9 14l11 9l9 3l12 -2l12 -3l18 -21l5 -8l4 -10l1 -9l-2 -28l-7 -14l3 -5h3h2l3 2l8 6l10 6l15 17l16 7l8 7l5 7l11 6l10 9l11 3l30 16l12 3l17 6h1l17 -5l9 -3l16 -11l4 -7l5 -14l4 -11l-1 -10l2 -10l1 -8l-1 -7l-4 -19l-1 -30l-10 -14v-3v-3l1 -1l7 -11 l5 -15l3 -2h2l10 3l10 3l6 9l10 6l3 5l8 8l10 -3l1 8l4 4l12 16l13 7l25 19l8 5l11 10l1 1h3h3l2 -2l1 -2l-2 -11l1 -16v-1l-2 -9l-12 -16l-21 -20l-14 -16l-2 -1l-8 -2l-14 -11l-17 -16l-4 -10l-11 -1l-8 -12l-12 -5l-14 -9l-14 1l-12 -1l-15 9l-10 3l-5 3l-14 19l-6 10 l-5 14v1l3 14l-4 13l-1 9l-3 8l4 5l-1 5l1 29l-1 11v15l-2 4l-4 5l-4 1l-1 -1l-34 -19l-20 -8l-9 -7l-3 -5l-48 -40l-15 -12l-11 -3l-2 -4l-2 -11l-8 -5l-11 -11l-6 6h-4l-5 -10l-6 -11l-13 -3l-2 -8l-7 -1l-8 -4l-10 -10l-8 -11l-10 3l-14 7l-7 10l-3 19l6 42l6 9l9 5l3 11 l9 7l11 14l9 2l2 12l15 29l3 11l-15 -13l-9 -1l-9 -13l-8 1l-8 -7l-22 -12l-6 -12l-19 -9l-6 5l-5 7l-1 4l13 36l6 9l27 15l8 8l17 9z" />
<glyph unicode="o" horiz-adv-x="329" d="M-14 191l6 10l9 14l2 1l12 4l9 13l21 16l16 15l10 3l50 31l26 10l28 7l11 3l10 3l13 6h2l28 -9l19 -7l15 -9l5 -7l2 -10l-1 -6l-7 -10l14 -8l5 -10l7 -11l4 -16l1 -25l-2 -12l-5 -8v-11l-2 -15l-2 -4l-12 -14l-5 -11l-9 -10l-2 -10l-1 -1l-30 -25l-8 -8l-6 2l-19 -18h-6 l-5 -3l-20 -10l-12 -6l-12 -1l-8 -6h-12h-12l-5 -3h-6l-9 6l-11 3l-13 13l-20 16l-5 7l-12 20l-4 14l1 20v6l4 8v19l8 27l4 10l-4 6l-7 -8l-8 -2l-4 -10l-3 -2l-5 3l-6 -11l-7 -7l-6 -1l-5 1l-1 2l-1 2v13l-2 8v3zM95 120l-3 -11l-2 -14l1 -3l5 -16l2 -11h1h11l16 -3l9 2 l12 3l8 7l11 5l9 13h9l4 10l19 15l6 13l10 9l10 22l7 11l4 22l-2 9l-1 2l-12 11l-5 8l-1 7l2 10l10 14l11 9v3l-2 3l-11 -5l-7 -7l-2 -1l-13 -5l-16 -4l-7 4h-5l-7 -12l-10 -2l-9 -11l-8 -2l-4 -2l-2 -4l-5 -11l-25 -26l-3 -10l-8 -19l-2 -13l-10 -7l-2 -3v-3z" />
<glyph unicode="p" horiz-adv-x="426" d="M93 239l-15 -1l-3 -11l-3 -9l-2 -1l-17 1l-4 -10l-3 -6l-1 -1l-19 -11l-22 -22l-11 -6h-4l-7 1l-6 7l-4 14l2 10l3 5l5 5l18 9l7 9l17 11l10 11l7 2l13 4l-2 10l11 3l12 7l6 7l8 5l16 18l13 20l8 7l10 3l10 -3l14 -13l8 -12l4 -16l-2 -17l-12 -49l1 -10h4l8 11l18 16 l9 10l14 8l26 19l13 5l4 9l9 6l30 19l22 4l12 3l11 -4l4 3h9h6l12 -9l12 -10l6 -17l4 -12v-1l-3 -11l3 -9l-5 -8l-1 -10l-7 -15l-4 -21l-7 -9l-13 -20l-12 -12l-7 -8l9 -1l11 11l11 6l5 5h8l13 10l14 7l16 14l8 8l9 2l7 9l13 7l21 18l8 2l8 3l4 -1l3 -3l1 -3l-1 -3l-5 -10 v-11l-4 -8l-7 -10l-9 -2l-6 -4l-15 -16l-15 -12l-5 -8l-3 -2l-2 -1l-9 2l-10 -11l-10 -3l-7 -12l-13 -2l-7 -7l-24 -22l-7 -1h-11l-8 -12l-8 -9h-13l-12 -9l-9 2l-13 -6l-10 -7h-4h-15l-35 -16l-7 -1h-6l-8 2h-1l-8 -8l-10 1l-11 -2h-2l-8 3l-17 16l-6 10l-10 7l-11 -13 l-3 -13l-3 -13l-6 -9l-8 -23l-6 -9l-2 -9l-6 -9l-3 -14l-7 -11l-13 -45l-6 -6l-6 -20l-15 -26l-3 -13l-15 -31l-2 -8l-8 -17l-13 -16l-11 -15l-14 -9l-17 -11h-1l-13 2l-7 3l-1 1l-13 21l-7 11l-2 8l-7 32l-1 11l13 42l13 26l5 15h1l10 8l24 45l32 39l2 11l3 9l4 3l9 5l4 9 l6 6l9 15l6 5l6 8l7 4l6 5l2 5l1 10l37 111l6 22zM-77 -202l19 26l13 25l11 18l14 35l34 99h-3l-9 -13h-7l-7 -19l-11 -8l-4 -5l-4 -14l-2 -11l-6 -10l-9 -8l-6 -13h-6l1 -11l-1 -6l-4 -8l-7 -11v-14l-6 -30v-22zM125 103l5 1l9 8l14 10l5 1l11 2l22 4l16 -6l4 -9l14 7 l16 11l11 3l4 8l20 20l4 8l21 24l7 11l10 16l6 15l4 11l-3 7l-4 10l-11 -5l-12 4l-7 -5l-9 -4l-7 -5l-10 -2l-8 -6l-6 -1l-10 -1l-11 -11l-7 -3l-6 -12l-11 -1l-6 -11l-19 -14l-29 -33l-10 -5l2 -9l-12 -13l-4 -14z" />
<glyph unicode="q" horiz-adv-x="460" d="M75 243l5 10l12 8l12 11l9 1l7 8l17 10l14 9l30 8l21 8l15 2l14 4l14 -3l13 -3l12 -10l8 -13l6 -24l3 -16l9 8l5 7l10 5l11 7l5 2l5 1l17 -5l10 -9l2 -6v-13l1 -12l-1 -5l-3 -6l-11 -15l-7 -17l-13 -14l-6 -11l-10 -4l-3 -18l-11 -7l-2 -9l-4 -10l-1 -1l-14 -6l-1 -1 l-1 -1l-1 -2l2 -5l3 -3l3 -1l19 7l19 4l8 3l3 3l5 4l17 10l14 10l14 2l20 18l32 20l23 21l2 1l3 -1l2 -3l1 -3v-1l-2 -11l1 -16l-4 -11l-4 -4l-21 -14l-7 -11l-12 -7l-13 -9l-11 -5l-4 -7l-18 -5l-7 -7l-11 -9l-2 -1h-11l-13 -10l-8 2l-9 -8l-9 -5l-12 -5l-11 -4l4 -11 l6 -27l-1 -11l-2 -11h-9v-11l5 -5l-2 -10l-4 -22l-14 -23l-10 -25l-14 -24l-14 -41l-7 -5l1 -6l-5 -13l-9 -18l-8 -8l-1 -15l-5 -7l-5 -8l-14 -14l-27 -44l-9 -5l-8 -6l-11 -1l-10 -5l-2 -1l-3 -1l-14 5l-15 15l-6 20l1 6l5 18l4 34l12 40l14 46l24 54l19 37l15 32l6 11 l2 11l9 12l7 19l9 20l-4 9l-7 18l8 2l12 8l13 7l8 21l11 15l2 15l9 13l-8 -7l-17 -4l-7 -8l-10 3l-7 -10l-11 -13l-5 -2l-10 -5l-7 -7l-7 -4l-7 -8l-7 3l-12 -11h-9l-7 -5l-14 -9l-7 1l-10 -9l-8 -6h-2h-9l-13 -3l-8 -1l-27 6l-9 5l-10 10l-6 27l4 32l7 20l7 20l9 11l21 27 l24 22l9 8h7zM242 194l2 11l2 5l2 1l11 5l12 14l-3 2l-8 -4l-9 5l-12 8l-2 1l-16 2l-15 -2l-16 -5l-16 -1l-12 -10l-14 -3l-10 -10l-10 -3l-11 -10l-15 -6l-6 -6l-20 -17l-8 -7l-7 -3l-3 -12l-19 -30l-3 -7l-1 -6l1 -7l4 -4l4 -1l11 4h7l10 4l15 3l30 17l10 3l11 6l6 7l13 5 l18 14l13 7l15 10l11 4l12 15zM126 -273l8 3l6 7l16 23l11 22l13 15l6 19l12 28l6 21l11 34l6 36l7 25l2 19l-3 18l-7 14l-4 1l2 -12v-7l-1 -8l-9 -7l-6 -14l-3 -10l-2 -11l-9 -9l-4 -6l-6 -1v-16l-7 -6l2 -9l-10 -21l-1 -10l-2 -9l-9 -12l-7 -25l-13 -33l-4 -18l-1 -15 l-4 -17l1 -4l1 -2z" />
<glyph unicode="r" horiz-adv-x="363" d="M91 278h6l6 11l24 14l8 10l8 5l5 7l11 7l12 7l1 1l15 1l18 -4l11 -10l3 -7l2 -16l21 -61l-3 -15l-3 -6l-14 -16l-6 -8l-8 -5l-5 -10l-8 -6l-4 -8l-4 -10l-11 -3l-1 -14l-15 -24l-5 -13l-5 -9l2 -5l2 -1l4 -1l19 2l7 -2l9 7l19 5l9 6l14 5l23 16l17 10l10 8l18 13l6 8 l26 18l10 17l8 6l6 1h1l9 -7l-4 -10v-20l-17 -23l-4 -9l-8 -3l-7 -8l-20 -17l-23 -17l-8 -9l-11 3l-2 -1l-6 -14l-14 -1l1 -11l-10 -5l-9 -4l-11 -9l-9 -6l-12 -1l-12 -7l-12 2l-22 -1l-10 6l-15 8l-4 3l-7 12l-5 13l-9 18l3 18l1 16l3 14l3 6l8 12l6 19l6 9l4 10l13 18 l15 29l6 10v3l-1 3l-1 3l-14 6l-6 -10l-17 -7l-8 -7l-10 -5l-11 -10l-9 -6l-6 -11l-13 -1l-8 -3l-6 -9l-13 -4l-6 -10l-10 -4l-12 -3l-9 -10l-5 -4l-6 -1l-7 2l-4 4l-1 6v5l2 16l10 11l5 7l5 4l9 3l10 7l8 2l6 9l11 6l8 7l14 14l1 1l12 4z" />
<glyph unicode="s" horiz-adv-x="259" d="M-36 191l6 -2l8 7l20 10l6 8l7 5l4 5l13 6l18 19l9 8l20 29l11 12l15 44l9 7l14 3l15 -3l11 -8l4 -5l12 -35l8 -24l4 -20l1 -14l6 -12l1 -8l-4 -12l1 -24l-5 -10l-1 -11l-6 -13l3 -6l26 15l6 6l28 20l13 15l37 22l13 15l8 4l11 4l6 -10l3 -13l-2 -13l-4 -4l-12 -10l-6 -7 l-18 -8l-9 -15l-12 -9l-7 -7l-12 -2l-5 -10l-7 -3l-8 -6l-11 -12l-9 -1l-4 -11l-11 -4l-4 -7l-5 -1l-11 -8l-13 -4l-11 -3l-4 -8l-10 -5l-17 -7l-1 -1l-5 -7l-16 -5l-8 -8h-11l-36 -18l-20 2l-21 1l-7 3l-11 15l-19 26v7l9 10l5 9l7 6l9 4l14 3l16 5l10 -10l11 1l11 -3l17 9 l10 3l4 10l18 30l7 7l3 24l3 3l6 2l4 3l-7 13l5 10v9l1 6l-1 8l1 9v1l-2 10l-3 10l-9 -5l-21 -21l-14 -18l-16 -9l-9 -13l-6 -3l-17 -12l-27 -23l-19 -12l-6 -8l-14 3l-2 3l-4 15l2 11l4 8z" />
<glyph unicode="t" horiz-adv-x="249" d="M14 399l7 -6l9 12l3 2h4h1l17 -2l14 5l17 4l13 7l35 7l15 8l9 5l17 20l15 13l17 31l11 13l7 8l10 -4l12 -13l6 -23l-3 -18l-3 -3l-14 -11l-7 -8l-2 -6l1 -3h7l8 5l43 5l35 10l41 6l35 7h9l11 -3l10 4l26 5l12 7l8 -3h5h7l45 9l20 -4l18 8l9 1l15 4l13 -2l9 1l10 -3l10 -4 l4 -6l7 -8l7 -12l4 -18l-2 -7l-5 -5l-9 -2h-1l-13 1l-31 1l-17 2l-42 -5l-11 1l-43 -10l-25 1l-9 -2h-1l-8 4l-12 -5l-18 -7h-24l-12 -4l-17 1l-18 -6l-21 -1l-46 -12l-17 -1l-20 -8l-18 2l-14 -8h-10l-5 -11l-6 -4l-3 -12l-10 -5l-17 -30l-11 -7l-8 -16l-13 -12l-11 -27 l-8 -9l-3 -9l-5 -3l-5 -10l-7 -6l-1 -10l-16 -14v-15l-8 -13l-4 -11l-6 -6l1 -12l-3 -7v-1v-7l1 -11l12 -4h14h14l17 8h11l35 21l10 4l8 6l12 5l7 9l4 3l5 1l10 1l6 9l38 31l13 13h1l5 -1l9 -10l2 -5v-1l-3 -11v-10l-3 -6l-4 -4l-11 -9l-6 -10l-20 -18l-11 -12l-11 -8 l-4 -10l-5 -4l-8 1l-12 -14l-13 -3l-17 -9l-10 -3l-14 -12l-22 -3l-8 -3l-18 -1l-14 -6l-14 12l-14 8l-16 19l-7 9l-1 4l-3 13l-4 9l1 11l-4 16l-1 7l1 4l6 8l-2 12l1 14l2 4l4 7l3 11l9 12l6 8l5 14l4 7l5 10l11 -2l5 7l-7 7l3 16l9 9l10 16l11 11l13 24l7 5l2 7l-10 -1 l-7 -2h-16l-11 -4l-25 -5l-14 -7l-10 1h-12l-7 3l-4 5l-2 9l1 5l8 15l6 10z" />
<glyph unicode="u" horiz-adv-x="489" d="M2 182l3 19l2 14l11 11l12 9l10 -1l6 14l13 3l13 16l11 -1l7 12l9 7l6 -1l7 9l10 2l7 3l10 1h10h2l13 -14l8 -9l7 -12l4 -20l-1 -5l-2 -3l-9 -4l-2 -12l-6 -15l-4 -8l-8 -6l-4 -9l-8 -1l-2 -11l-4 -16l-3 -4l-7 -9l-2 -8l-5 -13l-1 -6l1 -4l3 -3l2 -1l1 1l21 15l7 4l10 2 l5 9l12 11l8 8l11 2l2 9l12 7l12 11l17 14l5 7h8l5 14l30 26l6 10l11 7l25 23l12 7l18 3l13 -1l3 -3l14 -14l16 -13l5 -10l1 -5l-23 -56l-13 -44l-3 -16l-6 -2l1 -16l10 4l14 8l13 4l6 10l16 14l8 9l7 4l10 1l3 10l11 13l22 18l6 2l3 -1l3 -3l4 -5l2 -6l5 -4l1 -16l-5 -3 l-9 -12l-9 -1l-5 -7h-5l-9 -9l-24 -28l-15 -9l-7 2l-6 -8l-17 -12l-11 -14l-15 -5l-21 -20l-9 -3l-4 1l-12 11l-8 6l-7 11l-20 25v1v1l2 14v16l8 17v18l9 16l-2 7l2 12l-12 -7l-10 -13h-12l-6 -14l-7 -3l-7 -7l-11 1l-2 -13l-9 -6l-7 -8l-5 -2l-10 -11h-10l-3 -12l-9 -9 l-7 -7l-10 1l-3 -11l-3 -5l-1 -1l-13 -3l-31 -28l-15 1l-11 1l-7 3l-8 6l-8 10l-9 8l-15 25l-7 11v10l3 21l18 37l4 11h5l1 8l7 8v7l-17 -8l-10 -8l-9 -4l-3 2h-2l-4 -9l-5 -1l-5 -5l-6 -5l-5 -1z" />
<glyph unicode="v" horiz-adv-x="338" d="M30 239l8 14l14 2l8 13l10 3l11 7l6 7l10 4l15 10l7 2l9 2l21 -6l15 -15l6 -21l-3 -14l-9 -20l-1 -17l-8 -9l1 -25l-10 -16l-2 -12l-10 -5v-5l8 -8l1 -2l-2 -9l-2 -12h2l4 4l10 4l2 9l9 1l2 9l9 8l7 7l14 17l9 7l5 7l4 10l15 11l4 7l6 7l7 9l11 8l15 17l19 19l6 8l22 17 l9 8l10 5l24 5h5l10 -4l17 -16l4 -16l-5 -19l-7 -11l-5 -3l-11 3l-10 -7l-9 -2l-10 1l-8 -5l-11 -2l-7 -10l-12 -3l-8 -4l-3 -3l-7 -11l-17 -9l-8 -12l-10 -7l-8 -9l-9 -2l-4 -6l-2 -8l-6 -9l-1 -1l-10 -3l-4 -11l-11 -5l-6 -13l-9 -7l-7 -13l-14 -11l-14 -23l-12 -9 l-13 -13l-7 -1l-13 4l-33 37l-4 8l-6 25l3 17l10 26l13 56l11 29l-3 9l-14 -9l-17 -2l-5 -15l-18 -8l-7 -11l-9 -4l-8 -11h-2l-4 2l-5 9l-9 7l-1 2l2 6l5 8l19 19l3 6z" />
<glyph unicode="w" horiz-adv-x="465" d="M-1 209l8 5l3 6l16 7l12 10l7 9h11l6 9l10 4l13 14l14 8l11 15l18 16l14 4l11 -3l11 -10l5 -29l-2 -22l-8 -15l-4 -11l-28 -41l-17 -33l-11 -28l-2 -10l6 -2l13 4l6 1l6 11l14 5l-1 9l11 4l10 4l3 8l7 8l6 5l13 4l3 16l4 4l5 8l10 2v14l13 9l39 63l7 6l5 2l8 -3l14 -10 l14 -18l8 -28l-2 -13l-2 -3l-5 -2l-9 -30l-13 -22l2 -10l-1 -10l-4 -8l2 -10l-4 -7l-2 -7l2 -7l5 -4l2 -1l10 4l10 1l10 5l14 10l18 11l7 8l13 10l4 9l7 3l3 12l8 9l13 24l9 14l-3 12v10l-10 26v4l4 15l8 10l4 1h12l16 2l11 -7l13 -10l6 -7l5 -17l1 -9v-3l-11 -37l-2 -9 l-9 -10l-7 -23l-14 -12l-12 -24l-8 -7l-14 -21l-20 -10l-4 -4l-1 -2l-2 -10l-13 -10l-9 -8l-8 -2l-15 -13l-2 -1l-20 -5l-15 -1l-20 5l-8 4l-27 19l-1 3l-7 24l-3 12l1 21l2 33l1 7l-4 4l-6 -13l-11 -8l-5 -12l-6 -6l-6 -7l-10 -9l-5 -7l-7 -7l-10 -15l1 -4l-9 -5l-11 -11 l-32 -21l-28 -16l-6 -1l-14 4l-13 10l-4 8l-5 21l-4 16l5 35v10l11 15l2 11l7 13l3 6l9 11l2 11l3 13l-11 -5l-12 -10l-19 -9l-12 -13l-8 -6l-5 -1l-10 3l-9 9l-2 5v2z" />
<glyph unicode="x" horiz-adv-x="397" d="M103 161l9 13h8l5 8l7 5l13 12l13 10l4 27l5 32v12l-4 -3l-4 -5l-4 -5l-2 -1l-14 -3l-6 -10l-18 -3l-12 -13l-8 2h-2l-10 -13l-15 -8l-9 -9l-10 -3l-30 -35l-6 -2l-3 1l-6 6l-4 16l3 14l7 13l5 3l10 5l7 13l17 9l9 13l11 2l7 9l9 3l17 16l25 11l5 7l11 4l7 7l24 8l17 7 l7 1l12 -3l14 -4l9 -11l5 -8l1 -4l-2 -15l-1 -25l-1 -12l10 4l12 7l11 4l9 10l37 20l9 11l24 16l19 11l5 1l6 -2l7 -7l3 -11l-2 -11l-2 -3l-10 -4l-16 -7l-19 -7l-6 -6l-12 -7l-11 -9l-16 -7l-23 -16l-24 -15l-8 -7l-9 -2l-3 -12l-7 -34l-2 -12l-5 -10l1 -9l-5 -17l-1 -14 l4 -20h12l11 6l40 28l8 4l12 3l6 9l8 3l5 -6l4 10l6 11l7 7l10 7l14 13l12 7l19 12h3l4 -1l3 -2l2 -13l-4 -24l-8 -10l-8 -1l-10 -11l-13 -11l-19 -13l-13 -11l-11 -3l-7 -7l-13 -3l-14 -19l-21 -13l-7 -5l-12 -5l-4 -9l-5 -6l-3 -1l-9 -3l-8 -5l-1 -1l-21 -2l-8 1l-5 2 l-12 10l-12 10l-5 5l-2 3l-3 14l-3 10l7 41v14l7 5l-3 16l-10 -7l-10 -8l-21 -13l-15 -19l-12 2l-4 -19l-8 -8l-16 -22l-12 -10l-9 -9l-8 -4l-4 -1h-4l-7 6l-7 9l-4 13l1 4l1 3l9 14l11 17l8 5l21 16l11 5l37 30z" />
<glyph unicode="y" horiz-adv-x="380" d="M21 231l5 9l34 27l34 28l8 5l10 2l14 -4l6 -6l2 -16l-4 -22l-10 -17l-5 -15l-20 -32l-10 -21l-11 -27l1 -4l2 -2l4 -1h3l5 2l15 9l21 10l8 9l39 17l7 10l7 3l9 9l11 2l8 4l5 5l9 10l30 18l47 33l12 5l17 11l15 4l20 -6l14 -12l3 -17l-1 -22l-4 -18l-8 -18l-3 -16l-3 -9 v-12l-12 -9l3 -12l-1 -5l-2 -4l-6 -8l-2 -15l-7 -15l-8 -12l-11 -35l-6 -12l-7 -16l12 2l6 -1l14 6l11 2l24 5h20l9 1l13 -3l17 -4l15 -8l14 -11l4 -28l-3 -20l-5 -5l-4 -1l-2 1l-10 5l-11 7l-2 2l-11 22l-5 10h-10l-9 4l-11 -2l-9 3l-15 -4h-18l-12 -5l-21 -5l-13 -6l-3 -9 l-5 -12l-9 -11l-5 -15l-9 -11l-4 -8l-5 -9l-3 -21l-7 -10l-7 -8l-1 -10l-7 -5l1 -11l-17 -24l-4 -8l-6 -3l4 -10l-6 -9l-4 -11l-28 -39l-3 -12l-6 -7l-21 -29l-9 -6l2 -9l-6 -13l-9 -1l-4 -5l1 -11l-3 -3l-6 -4l-11 -1l1 -11l-10 -8l-12 -15l-10 -7l-17 -4l-8 1l-31 18 l-18 13l-4 5l-4 17l-1 21v3l6 10v13l5 13l3 13l9 12l13 30l12 16l26 42l11 15l2 7l8 1l5 9l4 11l13 11l15 23l13 6l5 10l27 19l7 8l8 1l7 12l13 5l1 9l2 4l18 4l10 6l8 11l4 12l9 -1l2 2l-2 11l3 11l4 10l11 9l-1 10l1 12l4 8l3 13l9 9l1 12l4 13l11 26l6 20l5 8l2 8v10 l-17 -11l-13 2l-12 -9l-7 -2l-5 -7l-18 -10l-6 6l-5 -1l-5 -12l-4 -3l-8 -2h-12l-4 -9l-5 -6l-3 -2l-22 -10l-21 -16l-23 -10l-11 -7l-20 -4l-7 -10l-16 1l-17 -4l-8 4l-17 13l-6 8l-1 3v12l-3 10l6 15l1 15l8 28l4 9l-2 3l-9 -7l-5 -10l-12 -13l-8 -7l-10 4l-4 9l-8 4l-1 3 l-1 6l1 4l7 9l22 18l8 9zM19 -350l17 8l12 10l8 6l3 10l5 7l8 5l4 10l10 4l3 14l12 18l4 9l15 22l8 18l6 6l6 19l7 9l1 10l9 10l7 13l8 13l12 20l3 12l15 25l-2 9l-9 -7l-19 -15l-13 -10l-14 -18l-27 -25l-10 -18l-1 -1h-11l-3 -5l3 -11l-8 -7l-3 -11l-9 -6l-8 -14l-9 -5 l-1 -12l-2 -13l-20 -34l-3 -9l-3 -6l-2 -14l-8 -5l-2 -5l6 -6l-5 -16v-14z" />
<glyph unicode="z" horiz-adv-x="235" d="M146 -37l4 9l15 31l7 25l-5 18l-9 10l-30 4l-27 -2l-38 -10l-12 -9l-8 7l-6 3l-8 9l-7 11l-1 7l1 6l6 10l1 12l8 3l10 21l6 5l12 19l8 7l10 6l2 10l13 23l11 23l12 11l7 10l3 15l-2 8l-2 3l-4 1l-3 -1l-6 -4l-27 -22l-6 -2l-19 -18l-14 -6l-9 -9l-13 -5l-10 -13l-9 -4 l-7 -9l-5 -7l-15 -11l-9 -6l-9 7l-2 13v7v4l8 16l5 7l31 22l13 12l13 6l8 10l11 5l34 24l31 14l16 12l8 7h10l22 8h2l20 -2l8 -3l3 -2l8 -9l8 -9l1 -3l-5 -24l-5 -16l-11 -22l-13 -19l-2 -13l-6 -5l1 -11l-10 -5l-5 -14l-10 -10l-8 -9l-1 -5l-9 -10l-9 -14l-9 -9l11 3l23 6 l13 1l25 -1l9 -3l31 -30l5 -15v-2l-1 -11v-8l-11 -31l-7 -23l-12 -23v-11l-8 -6l12 -3l11 -9l10 -14l2 -11l-1 -11l-7 -3l-3 -8l-16 -5l-7 -1l-10 3l-12 7l-11 -2l-4 -8l-9 -13l-6 -5l-1 -5l-10 -18l-6 -10h-5v-7l-8 -7l-10 -15l-11 -8l-13 -21l-11 -10l-5 -11l-11 -6l-7 -9 l-19 -20l-4 -6l-4 -2l-4 -6l-3 -2l-9 -9l-9 -2l-11 -15l-17 -7l-12 -9l-19 -15l-5 -2l-13 -3l-7 -5l-5 -3h-3h-2l-10 8l-10 5l-4 11l-5 9l-2 13l1 7l7 34l3 14l16 30l6 20l14 23l21 29l10 9l4 6l7 5l7 9l17 14l6 6l15 12l5 6l3 3l7 3l29 8l21 15l14 4l14 6l18 3l21 7z M-94 -293l12 2l20 9l12 3l14 14l17 6l13 14l6 3l5 13l27 20l6 11l6 4l3 11l11 4l5 10l24 40l4 10l5 6l6 12l-16 1l-12 -5l-14 -3l-44 -19l-8 -1l-10 -10l-3 -8l-18 -12l-3 3l-5 -10l-2 -4l-2 -1l-8 -2l-4 -14l-9 -7l-20 -26l-9 -10l-1 -19l-9 -27l-2 -9l1 -4z" />
<glyph unicode="|" horiz-adv-x="238" d="M144 -215h-60v909h60v-909z" />
<glyph unicode="~" d="M438 345q-10 -55 -38 -90t-73 -35q-44 0 -104 38q-41 27 -69 27t-44 -16.5t-28 -55.5l-40 16q25 125 115 125q39 0 95 -35q46 -30 79 -30q24 0 39 17t28 54z" />
<glyph unicode="&#xa1;" horiz-adv-x="307" d="M193 364l1 11l7 5l1 18l11 23l11 69l11 14l3 4l5 3l3 1l3 -1l15 -12l18 -12l1 -1l7 -15l5 -22l-4 -20l-21 -51l-18 -51l-22 -40l-8 -21l-4 -6l-8 -20l-7 -7l-1 -11l-5 -13l-11 -14l-5 -16l-10 -11l-7 -21l-6 -6l-10 -5l3 -8l-6 -8l-6 -10l-19 -49l-7 -11l-6 -4l-6 -1 l-12 3l-25 30l-10 23l-1 4l4 16l3 6l32 42l10 16l9 15l7 22l14 13l7 19l22 33l6 17l6 8l14 45zM241 600l7 11l4 9l12 34l6 4l14 3l12 -3l9 -6l13 -4l8 -15l12 -20l2 -9l-6 -12l-9 -17l-7 -13l-6 -6l-5 -6l-12 -2l-9 -3h-3l-10 2l-14 12l-10 15l-3 9l-6 12z" />
<glyph unicode="&#xa2;" horiz-adv-x="368" d="M55 315l2 11l5 13l2 2l7 7l10 11l7 3l1 11l6 6l8 10l9 5l10 9l12 8l6 7l9 5l17 14l15 5l12 1l14 9h2l6 -1l11 -3l5 11l7 21l9 14l8 22l9 18l5 9l9 1l2 -5l3 6l7 -6l-3 -7l2 -5l-5 -7l-1 -10l-3 -8l-2 -13l-5 -9l-7 -17l-9 -11l8 -2l12 5l10 -5l15 -10l5 -9l2 -6l1 -12 l-2 -8l-12 -12l-8 -5l-17 -6h-2l-2 1l-6 6l-16 3l-9 2l-5 -1l-4 -3l-3 -6l-3 -10l-10 -16l-5 -16l-1 -11l-14 -18l-1 -14l-6 -8l-2 -18l-11 -24l-7 -11l-2 -7l9 1l6 8l5 5l4 1l12 1l6 8l28 12l28 23l12 1l7 12l15 12l12 7l3 1l4 -1l3 -4l2 -6l-1 -3l-1 -2l-2 -1l-5 -1l5 -16 l-6 -15l-11 -5l-1 -12l-9 -4l-20 -15l-23 -22l-14 -10l-8 -7l-3 -1l-7 2l-8 -7l-9 -2h-2l-3 -3l-10 -10l-12 7l-5 -3v-6l-3 -4l-3 -1l-14 -3l-11 -3l-1 -10l-3 -3l-6 -9l-4 -15v-13l-7 -5l-3 -11l-12 -18l-5 -10l-11 3l-8 6l-8 7l-1 4v1l4 10l-1 6l7 8l1 7l6 4l1 10l5 8l3 9 l5 7l6 10h-11l-12 8l-17 8l-5 15l-11 6l-6 6l-3 5l-5 21l-3 8v4l1 8l8 21l6 22l4 7zM197 384l-8 -4l-5 1l-9 -10l-10 -4l-10 -12l-17 -6l-9 -10l-23 -38l-16 -12l1 -17l-9 -11v-13l-3 -19l3 -6l4 -3l15 -3l22 4l4 3l2 4l3 11l20 41l3 14l17 36l12 34l8 11z" />
<glyph unicode="&#xa3;" horiz-adv-x="715" d="M54 203l1 7l11 6l15 8l19 4l20 6l13 1l74 15l32 3l15 -1h8l11 1l3 2l12 21l13 21l-11 -1l-34 -16l-9 1l-12 -4l-3 1l-2 3l-1 2l2 17l17 4l47 20l23 8l12 24l11 19l4 12l-11 -5l-12 -4l-33 -23l-41 -15l-11 -7h-5l-10 2l-11 12l-5 18l2 13l2 3l10 5l14 8l16 -4l7 -1l9 -5 l34 11l7 -1l9 14h17l6 9l10 7l10 3l11 12l17 20l26 49l16 23l2 9l8 21l17 32l8 9l19 37l10 6l8 8l9 10l6 10l10 6l9 12l11 3l12 6l6 2l7 -2l17 -13l8 -8l-1 -13l2 -10l2 -11l-8 -10l-3 -13l-16 -27l-3 -10l-9 -12l-5 -10l-6 -7l-8 -20l-11 -4l-5 -4l-5 -6l-8 -13l-47 -41 l-13 -30l-16 -29l-4 -18l-10 -17l-5 -10l14 3l20 6l62 11l32 14l12 -1l5 5h1l3 -1l2 -1l2 -3l5 -12l21 -25l3 -12l-1 -9l-4 -7l-10 -11l-12 2l-9 3l-22 -2l-113 -6l-13 -1l-11 -6h-7l-25 -59l12 -2l8 -1l56 -5l16 -7l12 -1l14 -4l26 -2l30 -13l15 -4l6 -4l9 -6l1 -10l7 -10 l3 -10l21 -31l3 -20l-3 -11l-6 -6l-7 -2l-5 1l-4 3l-3 5l-8 20l-14 4l-3 4l-1 7l-11 3l-25 7l-3 2l-9 9l-15 3l-18 7h-18l-15 6l-20 3l-6 -1l-10 1h-1l-16 12l-23 -4l-16 5h-13l-6 -8l-14 -21l-22 -36l-32 -35l-5 -5l-6 -4l-34 -17l-12 -9l-16 -7l-12 -3l1 7h-6l-4 -7l-3 -5 l-4 -3l-6 -1h-13l-6 -6l-5 -1l-12 5l-15 -11l-11 -1l-26 -6l-14 2l-10 -1l-14 1l-4 2l-6 7l-23 8l-7 9l-15 -2l-5 9h-8l-2 6l1 7l-15 6l-6 9l-8 8l-3 4l-4 19l2 6l12 14l13 13l10 11l15 5l13 13l21 8l13 10l18 3h11zM-15 66l14 -1l10 -4l17 -3l13 2h2l10 8l19 1l18 6h13 l11 8l14 6l10 7l26 13l17 14l19 21l20 18l12 20l5 10l-36 1l-23 -2l-10 -4l-12 3l-5 1h-2l-5 -7l-15 -1l-30 -7l-13 1l-18 -10l-13 -1l-10 -13l-41 -25l-20 -21l-12 -16v-6l11 -10zM505 561h10l8 3l3 3l5 10l9 7l6 10l17 18l4 9l1 10l6 8l2 16l2 10l-9 -5l-21 -19l-40 -72z " />
<glyph unicode="&#xa4;" horiz-adv-x="582" d="M507 174l-38 -40l-67 67q-49 -40 -117 -40q-69 0 -118 40l-66 -67q-8 7 -21.5 21.5t-17.5 18.5l68 64q-40 55 -40 116q0 66 40 116l-68 65q4 4 17.5 18.5t21.5 21.5l66 -67q53 39 118 39q68 0 116 -39q22 23 68 67l38 -40l-67 -65q39 -52 39 -116q0 -61 -39 -116z M424 355q0 59 -42.5 98.5t-96.5 39.5q-59 0 -99.5 -41t-40.5 -97q0 -57 41.5 -98.5t98.5 -41.5t98 41.5t41 98.5z" />
<glyph unicode="&#xa5;" horiz-adv-x="490" d="M190 296l3 10l2 7l7 13l5 10l-11 -1l-24 2l-26 -1l-14 3h-27l-7 2l-5 3l-8 9l1 8l-1 8l5 10l5 6l2 1l12 3l16 4l13 -4l8 1l10 -3l39 1l28 3l3 3l1 4l-1 3l-2 10v10l1 14l4 12l-2 21l4 21l8 33l7 11l2 9l2 7l-4 10l-16 -10l-9 1l-2 -13l-1 -7l-3 -6l-3 -9l-2 -4l-3 -1 l-12 -4l-4 -4l-6 -10l-7 -1l-6 -10l-6 -2l-7 11l-11 7l6 15l8 10l13 11l2 6l13 1l8 14l16 3l8 12l19 9l7 8l10 5l19 10l12 2h5l5 -1l11 -6l13 -11l5 -15l1 -11l-1 -7l-10 -25l-1 -16l-7 -9l-1 -26l-9 -16l-1 -11l-10 -5l-1 -5l-1 -1l2 -13l-3 -16l5 -9l7 11l12 5l2 9l9 2 l4 10l36 37l8 16l15 10l17 24l13 11l40 43l22 17l8 7l15 8l15 3l20 -6l16 -16l6 -18v-3l-2 -3l-6 -11l-5 -9l-4 -4h-3l-10 2l-19 -8l-10 1l-8 -6l-11 -1l-8 -11l-10 -2l-8 -4l-3 -3l-7 -11l-17 -9l-10 -13l-10 -8l-8 -9h-8l-4 -7l-2 -8l-4 -7l-3 -3l-11 -2l-3 -11l-11 -3 l-5 -14l-8 -6l-5 -9l10 2l13 -2l18 3l41 -2l27 -4l6 -8l7 -2l-3 -12l-8 -16l-8 -6l-22 -8l-14 -2h-4l-18 3l-31 -3l-35 4l-17 -3h-11l-4 -12l-2 -6l-9 -10l-5 -11l12 -1h22h12l18 4l9 -1l8 -1l9 1l9 1l7 -5l11 1l12 -1l15 -10l-3 -15l-6 -13l-10 -8l-19 -7l-16 -2h-4l-18 3 l-31 -3l-35 4l-12 -3l-11 -1l-2 -16l-12 -21l-2 -16l-6 -18l-3 -10l-9 -5l1 -14l-12 -52l1 -30l-3 -9l-1 -10l-1 -3l-4 -2l-5 -1l-13 4l-23 22l-13 38l-6 34l1 6l6 22l1 16l25 60l3 10l-13 -4h-21l-32 1l-14 3l-27 -1l-11 5l-5 5l-2 10l-1 8l3 10l9 10l24 5h7l27 -4l49 1h8 h2l11 4z" />
<glyph unicode="&#xa6;" horiz-adv-x="239" d="M144 360h-60v334h60v-334zM144 -215h-60v332h60v-332z" />
<glyph unicode="&#xa8;" horiz-adv-x="307" d="M134 421l-6 -15l-10 -6l-8 -6h-2h-2l-7 4l-16 9l-7 8l-7 12l-2 10l3 12l13 14l14 12l7 2l10 -3l5 -5l11 -16l11 -13l1 -5l-1 -6zM172 459l21 12l5 5l9 -2l13 -9l18 -23l2 -10l-1 -6l-1 -2l-12 -9l-4 -7l-12 -3l-4 -8l-10 -6l-16 5l-10 17l-8 6l-3 5l-2 8l1 3l6 12z" />
<glyph unicode="&#xaa;" horiz-adv-x="411" d="M9 130h5l-2 11l4 9l21 30l2 7l13 12l8 12l17 13l18 19l32 21l29 20l17 7l17 10l23 7l17 7l10 -5l9 5h3l11 -3l16 -13l4 -11l2 -13l5 -11l8 7l10 15l12 10l20 5l12 -3l8 -7l3 -16l-4 -23l-13 -26l-12 -17l-11 -32l-5 -8v-16l-1 -16l1 -6l2 -2l3 -1l3 1l7 4l16 16l10 6 l17 17l5 1l8 13l16 10l11 13l8 7l4 1l4 -1l5 -6l3 -11l-3 -13l-8 -16l-4 -17l-7 -6l-21 -22l-9 -3l-11 -16l-12 -4l-6 -6l-10 -3l-5 -9l-15 -6l-25 -8l-11 2l-9 5l-9 2l-6 13l-7 11v5v2l2 11l-5 5l1 11l-1 13v1l1 7l2 11l-2 3l-10 -8l-11 -3l-6 -15l-9 -6l-4 -5l-10 -5 l-9 -7l-8 -1l-5 -9l-5 -6l-36 -27l-12 -12l-15 -9l-41 -24l-18 -3l-28 7l-16 12l-3 5l-4 16l-6 15v12l1 9v15zM207 173l21 15l4 9l8 6l17 17l9 9l8 12l-10 -3h-7h-8l-30 5l-2 -1l-11 -5l-21 -6l-30 -17l-10 -4l-8 -8l-28 -21l-5 -10l-12 -12l-4 -9l-13 -7l-4 -15l-9 -13 l-1 -6v-4l1 -13l2 -4l2 -1l5 -1l21 7l49 27l6 8l45 27l8 8l5 3z" />
<glyph unicode="&#xab;" horiz-adv-x="307" d="M156 255l9 -12l3 -12l-3 -10l-17 -17l-20 -14l-2 -3l-5 -11l-7 -8l12 -14l30 -41l2 -8l-2 -9l-5 -5l-6 -2l-7 2l-12 8l-34 35l-17 12l-10 14l-3 15l5 19l3 4l16 9l7 10l20 12l8 8l19 4l6 7zM203 161l13 -15l28 -37l2 -7l-2 -7l-4 -4l-6 -2l-7 2l-11 7l-32 31l-18 12l-8 8 l-3 16v5l3 15l2 3l16 11l5 7l19 12l7 8l19 6l8 10l3 2h1l4 -1l4 -5l4 -16l-2 -10l-14 -15l-18 -13l-2 -2l-4 -11z" />
<glyph unicode="&#xac;" d="M416 162h-60v180h-307v60h367v-240z" />
<glyph unicode="&#xad;" horiz-adv-x="351" d="M206 219l11 -3l10 3l11 -1l15 -2l16 -6l13 3h1l9 -3l4 -3l1 -14l-2 -13l-19 -16l-15 -10l-20 1l-22 -2l-24 9l-19 -3l-22 3l-19 -5l-25 5l-21 -4l-15 10h-12l-6 7l-2 4l-1 7l1 5l5 8l8 7l10 2l29 5l15 -2h1l16 3l31 2h10l17 1z" />
<glyph unicode="&#xb1;" d="M428 283h-159v-172h-60v172h-158v59h158v172h60v-172h159v-59zM428 0h-377v60h377v-60z" />
<glyph unicode="&#xb2;" horiz-adv-x="466" d="M437 539l-10 3l-7 1l-16 8h-25l-25 3l-18 -3l-16 3l-31 -12l-24 -4l-24 -13l-13 -6l-7 -5l-5 -1l-4 1l-11 2l-14 -8h-1l-4 1l-6 7l-8 28l-1 6l5 15l12 15l14 11l2 1l24 1l18 5l18 -1l20 8h16l32 4l42 -5l42 -4l11 -4l13 -10l8 -9l15 -23l15 -21l6 -22l-2 -10l-10 -16 l-9 -16l-16 -21l-16 -10l-5 -1h-19l-1 -1l-17 -13l-23 -14l-19 -12l-9 -6l-13 -4l-16 -16h-15l-5 -2l-4 -3l-42 -35l-20 -6l-15 -13l-14 -5l-9 -12l-10 -4l-15 -12l-28 -28l-12 -4l-6 -7l-11 -7l-13 -14l-10 -8l-7 -14l-7 -9l-5 -4l-9 -3v-11l4 -11l3 -3l3 -1l13 1l20 3l8 3 l10 3l16 -2l40 10h16l23 9h15l16 6h17l22 3l12 1l11 -1l15 -2l35 2l20 -5l10 -3l4 -11l15 -29l-2 -15l-2 -18l-12 -10l-6 -2l-7 2l-7 5l-7 11l-6 -3l-10 3l-14 -2l-12 8l-17 -3l-12 2l-27 -7l-31 -3l-29 -7h-23l-21 -8l-15 3l-21 -5h-14l-17 -3l-19 -4h-2l-14 10l-4 -11 l-5 -4l-6 -1h-6l-15 2l-16 10l-10 2l-7 14l-11 24l-2 15l5 33l6 20l3 4l12 13l9 15l12 12l6 8l53 47l12 14l17 10l20 16l15 13l21 15l39 26l16 8l11 9l17 4l9 6l17 9l12 7l12 4l40 22l25 9l17 13l24 10l10 9l28 17l3 7z" />
<glyph unicode="&#xb3;" horiz-adv-x="438" d="M255 235l7 7l16 4l4 7l5 5l6 -5l6 9l22 17l6 7l17 9l9 7l12 20l1 1v1l-2 12l3 13l-10 10l-8 10l-11 6l-10 5l-12 -4l-13 6l-20 -1h-11l-9 -2l-13 2l-9 -4l-38 -1l-51 -7h-1l-22 9l-10 6l-6 8l-15 29l-1 7l1 5l7 13h13l24 10l24 4l27 7l33 13l24 9l12 12l12 1l21 6l16 7 l37 17l10 6l-9 3l-22 -4l-10 3l-11 -6l-7 5l-13 -7l-6 3l-9 -2l-11 3l-11 3l-8 -7l-4 -2h-2l-11 1h-7l-9 4h-3l-17 -4l-24 -5h-28l-21 -7h-4l-5 1l-14 10l-7 5l-9 11l-8 11l-2 10l3 11l9 8l4 2h1l21 -2l51 -1l10 -8l21 3l9 7l4 -5h38l47 1h2l31 -2l27 3l11 -1h12l7 -3l11 2 l22 -5l17 -17l9 -17l5 -17v-1l-4 -13l-3 -9l-19 -11l-7 -5l-25 -12l-21 -13l-8 -2l-14 -5l-13 -1l-12 -8h-14l-3 -5l-7 -6l17 -6l31 -10l14 -14l19 -13l6 -11l11 -8l3 -5l1 -4l3 -20l2 -12l-4 -15l3 -9l3 -9l-5 -14l-2 -15l-9 -10l-7 -16l-10 -8l-8 -16l-15 -10l-14 -19 l-16 -3l-12 -17l-34 -6l-6 -11l-22 -10l-21 -16l-8 -1l-6 1l-9 6l-10 -5l-18 -17h-13l-17 -6l-11 -2l-17 -8l-11 6h-6l-8 -5l-27 -17l-4 -1h-50l-10 -4l-15 6l-11 1l-6 10l-6 10l-3 10l-16 36l-1 5l2 7l5 5l5 1h1l12 -2l11 6h9l15 2l12 -5h2l23 2l14 2l10 4l11 7l42 4l56 14 l27 9l34 17l20 7z" />
<glyph unicode="&#xb4;" horiz-adv-x="282" d="M171 495l16 2l20 -3l7 -6l2 -8l-1 -4l-2 -3l-17 -24l-7 -13l-11 -9l-9 -13l-29 -18l-8 -9l-6 -2l-9 -8l-5 -3l-2 -1l-9 1l-11 -1l-6 4l-9 -4l-3 3l-4 5l-1 4l1 5l2 3l13 9l10 15l11 8l7 10l10 8l4 9l7 9l8 22l7 10l8 6l4 1z" />
<glyph unicode="&#xb7;" horiz-adv-x="238" d="M87 370l7 21l6 16l1 1l13 9l8 9l4 1l2 1l15 -8l12 -8l15 -23l13 -12l2 -5v-4l-6 -16l-19 -26l-10 -7l-11 -4l-9 3l-11 8l-10 9l-18 27z" />
<glyph unicode="&#xb9;" horiz-adv-x="223" d="M180 535l-11 -1l-12 3l-6 6l-3 13l3 13l4 5l11 6l27 20l19 10l11 14l13 3l19 8l8 1l5 -1l11 -8l19 -18l3 -5l2 -7l-1 -6l-16 -20l-16 -17l-19 -34l-14 -26l-15 -19l-21 -43l-20 -20l-9 -27l-9 -19l-9 -28l-10 -13l-11 -24l-2 -11l-8 -12l-2 -9l-4 -24l-8 -18l-5 -9 l-1 -13l-6 -14l-4 -14l-8 -4v-15l-6 -31l-5 -20l1 -29l-4 -11l-2 -12l-3 -2l-6 -1l-17 5l-16 18l-13 32l-7 44v8l5 18l1 18l6 10l29 76l16 33l6 19l23 45l15 32l15 22l13 35l40 57z" />
<glyph unicode="&#xba;" horiz-adv-x="329" d="M-14 191l6 10l9 14l2 1l12 4l9 13l21 16l16 15l10 3l50 31l26 10l28 7l11 3l10 3l13 6h2l28 -9l19 -7l15 -9l5 -7l2 -10l-1 -6l-7 -10l14 -8l5 -10l7 -11l4 -16l1 -25l-2 -12l-5 -8v-11l-2 -15l-2 -4l-12 -14l-5 -11l-9 -10l-2 -10l-1 -1l-30 -25l-8 -8l-6 2l-19 -18h-6 l-5 -3l-20 -10l-12 -6l-12 -1l-8 -6h-12h-12l-5 -3h-6l-9 6l-11 3l-13 13l-20 16l-5 7l-12 20l-4 14l1 20v6l4 8v19l8 27l4 10l-4 6l-7 -8l-8 -2l-4 -10l-3 -2l-5 3l-6 -11l-7 -7l-6 -1l-5 1l-1 2l-1 2v13l-2 8v3zM95 120l-3 -11l-2 -14l1 -3l5 -16l2 -11h1h11l16 -3l9 2 l12 3l8 7l11 5l9 13h9l4 10l19 15l6 13l10 9l10 22l7 11l4 22l-2 9l-1 2l-12 11l-5 8l-1 7l2 10l10 14l11 9v3l-2 3l-11 -5l-7 -7l-2 -1l-13 -5l-16 -4l-7 4h-5l-7 -12l-10 -2l-9 -11l-8 -2l-4 -2l-2 -4l-5 -11l-25 -26l-3 -10l-8 -19l-2 -13l-10 -7l-2 -3v-3z" />
<glyph unicode="&#xbb;" horiz-adv-x="307" d="M107 190l-10 10l-7 12l-7 10l-14 4l-7 7l-4 18l1 6l4 4l5 1l4 -1l30 -29l48 -34l6 -11l1 -5l-1 -6l-2 -2l-17 -16l-15 -17l-14 -8l-26 -38l-4 -2l-2 -1l-9 3l-8 8l-5 18l4 19l17 16l12 15l13 6zM194 190l-9 8l-17 24l-17 5l-6 4l-4 7l-2 13l2 12l3 2l3 1l4 -1l11 -10 l22 -18l24 -18l20 -8l10 -10l7 -9l2 -9v-5l-2 -2l-20 -21l-15 -18l-9 -4l-29 -46l-7 -2l-10 3l-7 6l-6 24l2 18l1 1l19 17l10 16l14 8z" />
<glyph unicode="&#xbc;" horiz-adv-x="857" d="M439 417l1 13l4 11l3 3l15 11l28 27l11 1l5 10l7 7l5 2l10 -3l2 4l-2 11l11 12l11 13l10 5l13 15l16 10l21 24l12 5l11 6l3 4l3 24l15 -5l2 3h4l4 -11l1 -3l-2 -8l-3 -4l-10 -3l-4 -10l-7 -25l-20 -18l-6 -14l-6 -12l-9 1l-4 -8l-3 -10l-1 -10l-16 -3l-1 -1l-2 -6l-2 -10 l-11 -4l-6 -17l-8 -6l-11 -12l-14 -10l-26 -38l-8 -9l-2 -11l10 -3l36 -9l23 -9l46 -6h7l16 1l5 9l16 29l7 9l10 12l2 12l2 5l2 2l9 4l8 13l-1 8l8 10l10 22l8 12l4 18l8 9l5 8l17 12l3 20l5 5l2 10l2 5l5 3l8 4l3 5l5 2l-3 15l7 21l5 19l10 13l11 -4l14 -13l10 -32l1 -21 l-5 -9l-14 -21l-13 -32l-9 -5l-2 -11l-9 -26l-7 -12l-8 -9l-7 -21l-16 -4l-3 -13l-1 -11l-5 -6l-3 -9l-10 -5l-3 -4l-1 -1l-2 -17l-6 -14v-10l13 1l9 1l16 9l28 9l11 3l8 -6l14 -3l13 -10l16 -9l3 -5l1 -5l-1 -6l-4 -6l-5 -3l-13 -6l-11 -6l-41 -13l-20 -11l-13 7l-10 -6 l-8 -2h-12l-12 -2l-11 1l-11 -14l-13 -32l-9 -15l-2 -17l-5 -11l-3 -14l-5 -9l-7 2l-1 -20l-6 -4v-11l-7 -21l-2 -17l-3 -13l1 -34l-2 -18l-2 -6l-1 -1l-8 -4l-1 -5l-1 -2l-2 -1l-1 -1l-1 1l-10 5l-17 9l-16 20l-28 29l-3 8l-1 7l3 14l8 11l3 13l9 15l5 13l6 5l8 7l-4 10v1 l3 14l9 17l22 31l6 23l10 27l-2 4l-2 3l-6 1l-9 -1l-15 -2l-7 1l-3 2l-18 11l-19 1l-11 4l-7 7l-37 -8l-5 8l-10 -3l-17 -2l-7 1l-13 6l-15 9l-11 12l-6 20l2 8l3 4l11 6l35 31zM129 244l9 6l8 12l6 14l12 13l5 11l15 14l29 39l8 8l7 2l-1 12l9 9l14 18l21 23l4 8l1 1h8 l12 18l3 10l17 21l21 20l10 6l3 15l25 24l33 33l12 8l7 8l6 10l36 45l17 8l32 17l4 1l8 -2l7 -7l4 -16l-2 -16l-9 -25l-9 -15l-9 -21l-12 -3l-11 -6l-16 -9l-34 -36l-30 -27l-17 -21l-33 -25l-22 -28l-9 -8l-8 -14l-12 -6l-8 -7l-8 -11l-5 -13l-4 -10h-10l-3 -16l-8 -5 l-3 -15l-9 -2l-5 -3l-2 -3l-9 -16l-13 -13l-11 -17l-10 -10l-6 -9l-11 -6v-10l-2 -12l-3 -6l-15 -17l-26 -42l-7 -12l-8 -14l-6 -22l-5 -13l2 -14l-1 -12l10 -38v-12l-5 -24l-13 -11l-12 -3l-13 2l-21 4l-9 7l-3 4l-5 14l-7 13l-2 14v12v4l3 15l1 10l14 30l4 12l16 28l15 31 l26 32l8 16l8 13zM180 535l-11 -1l-12 3l-6 6l-3 13l3 13l4 5l11 6l27 20l19 10l11 14l13 3l19 8l8 1l5 -1l11 -8l19 -18l3 -5l2 -7l-1 -6l-16 -20l-16 -17l-19 -34l-14 -26l-15 -19l-21 -43l-20 -20l-9 -27l-9 -19l-9 -28l-10 -13l-11 -24l-2 -11l-8 -12l-2 -9l-4 -24 l-8 -18l-5 -9l-1 -13l-6 -14l-4 -14l-8 -4v-15l-6 -31l-5 -20l1 -29l-4 -11l-2 -12l-3 -2l-6 -1l-17 5l-16 18l-13 32l-7 44v8l5 18l1 18l6 10l29 76l16 33l6 19l23 45l15 32l15 22l13 35l40 57z" />
<glyph unicode="&#xbd;" horiz-adv-x="816" d="M787 539l-10 3l-7 1l-16 8h-25l-25 3l-18 -3l-16 3l-31 -12l-24 -4l-24 -13l-13 -6l-7 -5l-5 -1l-4 1l-11 2l-14 -8h-1l-4 1l-6 7l-8 28l-1 6l5 15l12 15l14 11l2 1l24 1l18 5l18 -1l20 8h16l32 4l42 -5l42 -4l11 -4l13 -10l8 -9l15 -23l15 -21l6 -22l-2 -10l-10 -16 l-9 -16l-16 -21l-16 -10l-5 -1h-19l-1 -1l-17 -13l-23 -14l-19 -12l-9 -6l-13 -4l-16 -16h-15l-5 -2l-4 -3l-42 -35l-20 -6l-15 -13l-14 -5l-9 -12l-10 -4l-15 -12l-28 -28l-12 -4l-6 -7l-11 -7l-13 -14l-10 -8l-7 -14l-7 -9l-5 -4l-9 -3v-11l4 -11l3 -3l3 -1l13 1l20 3l8 3 l10 3l16 -2l40 10h16l23 9h15l16 6h17l22 3l12 1l11 -1l15 -2l35 2l20 -5l10 -3l4 -11l15 -29l-2 -15l-2 -18l-12 -10l-6 -2l-7 2l-7 5l-7 11l-6 -3l-10 3l-14 -2l-12 8l-17 -3l-12 2l-27 -7l-31 -3l-29 -7h-23l-21 -8l-15 3l-21 -5h-14l-17 -3l-19 -4h-2l-14 10l-4 -11 l-5 -4l-6 -1h-6l-15 2l-16 10l-10 2l-7 14l-11 24l-2 15l5 33l6 20l3 4l12 13l9 15l12 12l6 8l53 47l12 14l17 10l20 16l15 13l21 15l39 26l16 8l11 9l17 4l9 6l17 9l12 7l12 4l40 22l25 9l17 13l24 10l10 9l28 17l3 7zM129 244l9 6l8 12l6 14l12 13l5 11l15 14l29 39l8 8 l7 2l-1 12l9 9l14 18l21 23l4 8l1 1h8l12 18l3 10l17 21l21 20l10 6l3 15l25 24l33 33l12 8l7 8l6 10l36 45l17 8l32 17l4 1l8 -2l7 -7l4 -16l-2 -16l-9 -25l-9 -15l-9 -21l-12 -3l-11 -6l-16 -9l-34 -36l-30 -27l-17 -21l-33 -25l-22 -28l-9 -8l-8 -14l-12 -6l-8 -7l-8 -11 l-5 -13l-4 -10h-10l-3 -16l-8 -5l-3 -15l-9 -2l-5 -3l-2 -3l-9 -16l-13 -13l-11 -17l-10 -10l-6 -9l-11 -6v-10l-2 -12l-3 -6l-15 -17l-26 -42l-7 -12l-8 -14l-6 -22l-5 -13l2 -14l-1 -12l10 -38v-12l-5 -24l-13 -11l-12 -3l-13 2l-21 4l-9 7l-3 4l-5 14l-7 13l-2 14v12v4 l3 15l1 10l14 30l4 12l16 28l15 31l26 32l8 16l8 13zM180 535l-11 -1l-12 3l-6 6l-3 13l3 13l4 5l11 6l27 20l19 10l11 14l13 3l19 8l8 1l5 -1l11 -8l19 -18l3 -5l2 -7l-1 -6l-16 -20l-16 -17l-19 -34l-14 -26l-15 -19l-21 -43l-20 -20l-9 -27l-9 -19l-9 -28l-10 -13 l-11 -24l-2 -11l-8 -12l-2 -9l-4 -24l-8 -18l-5 -9l-1 -13l-6 -14l-4 -14l-8 -4v-15l-6 -31l-5 -20l1 -29l-4 -11l-2 -12l-3 -2l-6 -1l-17 5l-16 18l-13 32l-7 44v8l5 18l1 18l6 10l29 76l16 33l6 19l23 45l15 32l15 22l13 35l40 57z" />
<glyph unicode="&#xbe;" horiz-adv-x="1072" d="M654 417l1 13l4 11l3 3l15 11l28 27l11 1l5 10l7 7l5 2l10 -3l2 4l-2 11l11 12l11 13l10 5l13 15l16 10l21 24l12 5l11 6l3 4l3 24l15 -5l2 3h4l4 -11l1 -3l-2 -8l-3 -4l-10 -3l-4 -10l-7 -25l-20 -18l-6 -14l-6 -12l-9 1l-4 -8l-3 -10l-1 -10l-16 -3l-1 -1l-2 -6l-2 -10 l-11 -4l-6 -17l-8 -6l-11 -12l-14 -10l-26 -38l-8 -9l-2 -11l10 -3l36 -9l23 -9l46 -6h7l16 1l5 9l16 29l7 9l10 12l2 12l2 5l2 2l9 4l8 13l-1 8l8 10l10 22l8 12l4 18l8 9l5 8l17 12l3 20l5 5l2 10l2 5l5 3l8 4l3 5l5 2l-3 15l7 21l5 19l10 13l11 -4l14 -13l10 -32l1 -21 l-5 -9l-14 -21l-13 -32l-9 -5l-2 -11l-9 -26l-7 -12l-8 -9l-7 -21l-16 -4l-3 -13l-1 -11l-5 -6l-3 -9l-10 -5l-3 -4l-1 -1l-2 -17l-6 -14v-10l13 1l9 1l16 9l28 9l11 3l8 -6l14 -3l13 -10l16 -9l3 -5l1 -5l-1 -6l-4 -6l-5 -3l-13 -6l-11 -6l-41 -13l-20 -11l-13 7l-10 -6 l-8 -2h-12l-12 -2l-11 1l-11 -14l-13 -32l-9 -15l-2 -17l-5 -11l-3 -14l-5 -9l-7 2l-1 -20l-6 -4v-11l-7 -21l-2 -17l-3 -13l1 -34l-2 -18l-2 -6l-1 -1l-8 -4l-1 -5l-1 -2l-2 -1l-1 -1l-1 1l-10 5l-17 9l-16 20l-28 29l-3 8l-1 7l3 14l8 11l3 13l9 15l5 13l6 5l8 7l-4 10v1 l3 14l9 17l22 31l6 23l10 27l-2 4l-2 3l-6 1l-9 -1l-15 -2l-7 1l-3 2l-18 11l-19 1l-11 4l-7 7l-37 -8l-5 8l-10 -3l-17 -2l-7 1l-13 6l-15 9l-11 12l-6 20l2 8l3 4l11 6l35 31zM344 244l9 6l8 12l6 14l12 13l5 11l15 14l29 39l8 8l7 2l-1 12l9 9l14 18l21 23l4 8l1 1h8 l12 18l3 10l17 21l21 20l10 6l3 15l25 24l33 33l12 8l7 8l6 10l36 45l17 8l32 17l4 1l8 -2l7 -7l4 -16l-2 -16l-9 -25l-9 -15l-9 -21l-12 -3l-11 -6l-16 -9l-34 -36l-30 -27l-17 -21l-33 -25l-22 -28l-9 -8l-8 -14l-12 -6l-8 -7l-8 -11l-5 -13l-4 -10h-10l-3 -16l-8 -5 l-3 -15l-9 -2l-5 -3l-2 -3l-9 -16l-13 -13l-11 -17l-10 -10l-6 -9l-11 -6v-10l-2 -12l-3 -6l-15 -17l-26 -42l-7 -12l-8 -14l-6 -22l-5 -13l2 -14l-1 -12l10 -38v-12l-5 -24l-13 -11l-12 -3l-13 2l-21 4l-9 7l-3 4l-5 14l-7 13l-2 14v12v4l3 15l1 10l14 30l4 12l16 28l15 31 l26 32l8 16l8 13zM255 235l7 7l16 4l4 7l5 5l6 -5l6 9l22 17l6 7l17 9l9 7l12 20l1 1v1l-2 12l3 13l-10 10l-8 10l-11 6l-10 5l-12 -4l-13 6l-20 -1h-11l-9 -2l-13 2l-9 -4l-38 -1l-51 -7h-1l-22 9l-10 6l-6 8l-15 29l-1 7l1 5l7 13h13l24 10l24 4l27 7l33 13l24 9l12 12 l12 1l21 6l16 7l37 17l10 6l-9 3l-22 -4l-10 3l-11 -6l-7 5l-13 -7l-6 3l-9 -2l-11 3l-11 3l-8 -7l-4 -2h-2l-11 1h-7l-9 4h-3l-17 -4l-24 -5h-28l-21 -7h-4l-5 1l-14 10l-7 5l-9 11l-8 11l-2 10l3 11l9 8l4 2h1l21 -2l51 -1l10 -8l21 3l9 7l4 -5h38l47 1h2l31 -2l27 3 l11 -1h12l7 -3l11 2l22 -5l17 -17l9 -17l5 -17v-1l-4 -13l-3 -9l-19 -11l-7 -5l-25 -12l-21 -13l-8 -2l-14 -5l-13 -1l-12 -8h-14l-3 -5l-7 -6l17 -6l31 -10l14 -14l19 -13l6 -11l11 -8l3 -5l1 -4l3 -20l2 -12l-4 -15l3 -9l3 -9l-5 -14l-2 -15l-9 -10l-7 -16l-10 -8l-8 -16 l-15 -10l-14 -19l-16 -3l-12 -17l-34 -6l-6 -11l-22 -10l-21 -16l-8 -1l-6 1l-9 6l-10 -5l-18 -17h-13l-17 -6l-11 -2l-17 -8l-11 6h-6l-8 -5l-27 -17l-4 -1h-50l-10 -4l-15 6l-11 1l-6 10l-6 10l-3 10l-16 36l-1 5l2 7l5 5l5 1h1l12 -2l11 6h9l15 2l12 -5h2l23 2l14 2l10 4 l11 7l42 4l56 14l27 9l34 17l20 7z" />
<glyph unicode="&#xbf;" horiz-adv-x="595" d="M119 225l8 11l8 7l5 2l9 3l20 17h15l16 8l23 4l13 8l11 5l7 1l14 -3l11 11l13 9l18 13l17 5h15l14 13l9 6l14 10l16 1l23 15l11 2l9 6l12 5l14 17l8 11v11l1 44l2 6l4 5l11 8l4 2l4 -1l4 -3l3 -7l11 -33l11 -12l10 -14l9 -17v-1l-3 -20l-8 -20l-19 -23l-22 -16l-8 -7 l-11 -3l-23 -16l-15 -8l-14 -9l-19 -8l-32 -17l-30 -12l-29 -13l-16 -7l-11 -8l-15 -2l-13 -11l-16 -1l-7 -3l-34 -13l-17 -9l-29 -10l-18 -10l-20 -4l-32 -17l-8 -6l-6 -18l21 -20h18l26 -4l25 4l24 -7l18 7h28l24 9l15 -2l13 5l16 2l24 3l13 1l19 7l22 -5l16 9l15 4l15 13 l10 3l9 23l8 6l17 5l8 -2l14 -5l5 -5l4 -9v-7v-3l-5 -19l-7 -20l-33 -17l-24 -6h-1l-16 2l-4 -7h-12l-16 -5l-11 2l-10 -3l-12 2l-8 -7l-7 -3l-2 -1h-1l-7 5l-15 -6l-14 -2l-22 -7h-2h-13h-15l-13 -1l-6 1l-6 6l-17 -4l-9 -1l-5 1l-6 2l-18 -1l-12 2l-16 -2l-12 6h-12l-9 4 l-15 -2l-9 6l-30 7l-6 4l-16 20l-5 8l-2 10l-2 10h-5l-1 3l-1 10l1 11l7 27l2 4l9 6l9 13l5 4l3 1l18 3l32 25h4l9 -2zM487 632l27 -4l9 -10l10 -14l2 -11l6 -16l-2 -6l-2 -4l-6 -5l-5 -11l-12 -12l-11 -13l-7 -5l-9 -1l-10 2l-12 7l-5 6l-13 24l-6 13v3l1 7l37 43z" />
<glyph unicode="&#xc0;" horiz-adv-x="594" d="M490 778l9 -11l1 -4l-1 -5l-3 -2l-15 -3l-11 1h-14l-9 10l-12 12v10l-9 14l-4 8l-3 5v13l-12 25v2l2 10l10 10l16 4l5 -1l11 -3h16l5 -4l3 -8l7 -41l8 -27l-2 -11zM82 164l-6 13l3 7l3 7l4 1l7 -6l2 1l-3 6l-8 6l-2 13l3 13l7 29l7 13l13 16l6 31l10 23l20 29l5 14l12 16 l8 20l18 20l3 9l15 20l24 33l11 8l4 10l12 11l8 10l10 6l8 11l21 15l8 8l12 6l4 9l18 16l12 12l17 9l5 10l13 5l9 10l16 4l11 9l12 7l29 13l34 6l19 -3l16 -6l5 -7l10 -15l2 -14l-1 -11l-7 -43l-1 -11l-6 -14l-4 -21l-7 -9l-7 -5l-8 -1l-11 3l-8 8l-4 16l2 10l2 3l19 18 l9 13l7 28l-1 5l-1 2l-6 4l-10 -2l-10 2l-17 -8l-19 -7l-14 -14l-25 -15l-13 -10l-7 -9l-14 -2l-5 -11l-14 -8l-7 -12l-7 -4l-12 -14l-10 -8h-5l-5 -11l-7 -9l-18 -9l1 -12l-1 -5l-2 -1l-21 -19l-3 -14l-8 -10l-10 -17l-8 -8l-5 -16l-11 -8l-7 -14l-10 -7l-1 -5l2 -11v-1 l-1 -2l-4 -5l-9 -6l-5 -13l-4 -6l-12 -13l1 -10l-9 -23l-11 -19l-10 -5l2 -16l-7 -20l2 -9l-8 -6l1 -11l-9 -36l5 -17l-4 -9l2 -11l5 -22l4 -3l7 -1l10 1l10 2l11 8l28 22l8 9l6 4l8 5l6 10l23 26l21 30l7 6l8 17l9 8l11 12l7 12l16 17l9 13l8 12l10 7l5 11l13 6l-1 14l2 3 l3 4l10 5l1 14l18 12l8 22l20 24l1 12l12 9v10l9 11l2 5l8 7l2 10l16 22l12 14l6 3h5l15 -4l14 -7l8 -11l3 -11l-1 -2l-10 -28l-5 -24l-6 -15l-6 -16l2 -11l-8 -16l-5 -25l-2 -5l-2 -2l-10 -3l-3 -12l-1 -31l-8 -11l-11 -20l-6 -31l-8 -10l2 -9l-8 -20l2 -14l-4 -11l1 -23 l-3 -12v-5l2 -2l10 5l11 6l28 24l29 18l8 8l32 29l12 8l8 8l5 1l5 -1l2 -2l1 -2l-4 -26l-4 -22l-7 -9l-7 -7l-8 -4l-8 -11l-13 -4l-4 -7l-10 -4l-10 -16l-13 -3l-20 -16l-11 -8l-30 -5l-12 -1l-6 2l-3 7h-11l-5 7l-8 5l-6 11l-8 11l-6 28l-2 11l2 13l2 22l5 17l1 19l14 53 v19l-5 -10l-15 -20l-17 -15l-5 -9l4 -7l-7 -10l-12 -16l-6 -13l-13 -1l-3 -3l1 -12l-13 -12l-2 -7l-6 -4l1 -10l-8 -7l-5 -13l-3 -3l-2 -2h-11l1 -17l-10 -7l-17 -24l-25 -26l-7 -9l-10 -6l-11 -12l-9 -3l-9 -6l-23 -4l-14 -5l-3 -1l-14 5l-20 10l-11 2l-7 10l-17 14l-5 8 l-10 28l-6 30l1 7l3 12l-1 3l-3 5l-1 1l1 2l1 3z" />
<glyph unicode="&#xc1;" horiz-adv-x="594" d="M554 875l16 2l20 -3l7 -6l2 -8l-1 -4l-2 -3l-17 -24l-7 -13l-11 -9l-9 -13l-29 -18l-8 -9l-6 -2l-9 -8l-5 -3l-2 -1l-9 1l-11 -1l-6 4l-9 -4l-3 3l-4 5l-1 4l1 5l2 3l13 9l10 15l11 8l7 10l10 8l4 9l7 9l8 22l7 10l8 6l4 1zM82 164l-6 13l3 7l3 7l4 1l7 -6l2 1l-3 6l-8 6 l-2 13l3 13l7 29l7 13l13 16l6 31l10 23l20 29l5 14l12 16l8 20l18 20l3 9l15 20l24 33l11 8l4 10l12 11l8 10l10 6l8 11l21 15l8 8l12 6l4 9l18 16l12 12l17 9l5 10l13 5l9 10l16 4l11 9l12 7l29 13l34 6l19 -3l16 -6l5 -7l10 -15l2 -14l-1 -11l-7 -43l-1 -11l-6 -14 l-4 -21l-7 -9l-7 -5l-8 -1l-11 3l-8 8l-4 16l2 10l2 3l19 18l9 13l7 28l-1 5l-1 2l-6 4l-10 -2l-10 2l-17 -8l-19 -7l-14 -14l-25 -15l-13 -10l-7 -9l-14 -2l-5 -11l-14 -8l-7 -12l-7 -4l-12 -14l-10 -8h-5l-5 -11l-7 -9l-18 -9l1 -12l-1 -5l-2 -1l-21 -19l-3 -14l-8 -10 l-10 -17l-8 -8l-5 -16l-11 -8l-7 -14l-10 -7l-1 -5l2 -11v-1l-1 -2l-4 -5l-9 -6l-5 -13l-4 -6l-12 -13l1 -10l-9 -23l-11 -19l-10 -5l2 -16l-7 -20l2 -9l-8 -6l1 -11l-9 -36l5 -17l-4 -9l2 -11l5 -22l4 -3l7 -1l10 1l10 2l11 8l28 22l8 9l6 4l8 5l6 10l23 26l21 30l7 6l8 17 l9 8l11 12l7 12l16 17l9 13l8 12l10 7l5 11l13 6l-1 14l2 3l3 4l10 5l1 14l18 12l8 22l20 24l1 12l12 9v10l9 11l2 5l8 7l2 10l16 22l12 14l6 3h5l15 -4l14 -7l8 -11l3 -11l-1 -2l-10 -28l-5 -24l-6 -15l-6 -16l2 -11l-8 -16l-5 -25l-2 -5l-2 -2l-10 -3l-3 -12l-1 -31 l-8 -11l-11 -20l-6 -31l-8 -10l2 -9l-8 -20l2 -14l-4 -11l1 -23l-3 -12v-5l2 -2l10 5l11 6l28 24l29 18l8 8l32 29l12 8l8 8l5 1l5 -1l2 -2l1 -2l-4 -26l-4 -22l-7 -9l-7 -7l-8 -4l-8 -11l-13 -4l-4 -7l-10 -4l-10 -16l-13 -3l-20 -16l-11 -8l-30 -5l-12 -1l-6 2l-3 7h-11 l-5 7l-8 5l-6 11l-8 11l-6 28l-2 11l2 13l2 22l5 17l1 19l14 53v19l-5 -10l-15 -20l-17 -15l-5 -9l4 -7l-7 -10l-12 -16l-6 -13l-13 -1l-3 -3l1 -12l-13 -12l-2 -7l-6 -4l1 -10l-8 -7l-5 -13l-3 -3l-2 -2h-11l1 -17l-10 -7l-17 -24l-25 -26l-7 -9l-10 -6l-11 -12l-9 -3 l-9 -6l-23 -4l-14 -5l-3 -1l-14 5l-20 10l-11 2l-7 10l-17 14l-5 8l-10 28l-6 30l1 7l3 12l-1 3l-3 5l-1 1l1 2l1 3z" />
<glyph unicode="&#xc2;" horiz-adv-x="594" d="M367 771l9 6l19 17l9 5l14 14l12 8l30 31l15 9l11 13l9 5l11 2l14 -2l2 -1l7 -9l7 -7l6 -15l11 -16l3 -13l8 -14l5 -14l13 -24l-3 -9l-2 -2h-2h-13l-10 -2h-1l-7 2l-13 5l-7 8l-7 10l-11 11l-6 11l-9 11l-4 -9l-10 -4l-21 -16l-11 -5l-7 -9l-12 -7l-8 -6l-6 -2l-14 3 l-10 3l-10 -3l-5 -2l-5 2l-3 2v3v2zM82 164l-6 13l3 7l3 7l4 1l7 -6l2 1l-3 6l-8 6l-2 13l3 13l7 29l7 13l13 16l6 31l10 23l20 29l5 14l12 16l8 20l18 20l3 9l15 20l24 33l11 8l4 10l12 11l8 10l10 6l8 11l21 15l8 8l12 6l4 9l18 16l12 12l17 9l5 10l13 5l9 10l16 4l11 9 l12 7l29 13l34 6l19 -3l16 -6l5 -7l10 -15l2 -14l-1 -11l-7 -43l-1 -11l-6 -14l-4 -21l-7 -9l-7 -5l-8 -1l-11 3l-8 8l-4 16l2 10l2 3l19 18l9 13l7 28l-1 5l-1 2l-6 4l-10 -2l-10 2l-17 -8l-19 -7l-14 -14l-25 -15l-13 -10l-7 -9l-14 -2l-5 -11l-14 -8l-7 -12l-7 -4 l-12 -14l-10 -8h-5l-5 -11l-7 -9l-18 -9l1 -12l-1 -5l-2 -1l-21 -19l-3 -14l-8 -10l-10 -17l-8 -8l-5 -16l-11 -8l-7 -14l-10 -7l-1 -5l2 -11v-1l-1 -2l-4 -5l-9 -6l-5 -13l-4 -6l-12 -13l1 -10l-9 -23l-11 -19l-10 -5l2 -16l-7 -20l2 -9l-8 -6l1 -11l-9 -36l5 -17l-4 -9 l2 -11l5 -22l4 -3l7 -1l10 1l10 2l11 8l28 22l8 9l6 4l8 5l6 10l23 26l21 30l7 6l8 17l9 8l11 12l7 12l16 17l9 13l8 12l10 7l5 11l13 6l-1 14l2 3l3 4l10 5l1 14l18 12l8 22l20 24l1 12l12 9v10l9 11l2 5l8 7l2 10l16 22l12 14l6 3h5l15 -4l14 -7l8 -11l3 -11l-1 -2 l-10 -28l-5 -24l-6 -15l-6 -16l2 -11l-8 -16l-5 -25l-2 -5l-2 -2l-10 -3l-3 -12l-1 -31l-8 -11l-11 -20l-6 -31l-8 -10l2 -9l-8 -20l2 -14l-4 -11l1 -23l-3 -12v-5l2 -2l10 5l11 6l28 24l29 18l8 8l32 29l12 8l8 8l5 1l5 -1l2 -2l1 -2l-4 -26l-4 -22l-7 -9l-7 -7l-8 -4 l-8 -11l-13 -4l-4 -7l-10 -4l-10 -16l-13 -3l-20 -16l-11 -8l-30 -5l-12 -1l-6 2l-3 7h-11l-5 7l-8 5l-6 11l-8 11l-6 28l-2 11l2 13l2 22l5 17l1 19l14 53v19l-5 -10l-15 -20l-17 -15l-5 -9l4 -7l-7 -10l-12 -16l-6 -13l-13 -1l-3 -3l1 -12l-13 -12l-2 -7l-6 -4l1 -10 l-8 -7l-5 -13l-3 -3l-2 -2h-11l1 -17l-10 -7l-17 -24l-25 -26l-7 -9l-10 -6l-11 -12l-9 -3l-9 -6l-23 -4l-14 -5l-3 -1l-14 5l-20 10l-11 2l-7 10l-17 14l-5 8l-10 28l-6 30l1 7l3 12l-1 3l-3 5l-1 1l1 2l1 3z" />
<glyph unicode="&#xc3;" horiz-adv-x="594" d="M395 872l4 6l6 3l9 6l7 1l9 -2l14 -14l8 -11l2 -12l8 -14l4 -9h3l6 8l11 9l3 6l24 16l12 14l13 7l8 7l12 -3l4 -5l-3 -13l2 -10l-3 -7l-5 -13l-6 -8l-12 -13l-9 -6l-10 -12l-10 -4l-4 -3l-11 -13l-6 -10l-12 -1l-8 -8l-10 -1l-10 -1h-1l-5 1l-2 2l-2 2l-7 12l-6 4l-4 5 l-4 18l-2 9l-3 4l-3 -1l-3 -6l-7 -4l-4 -3l-1 -1l-5 -8l-14 -9l-5 -9l-7 -5l-6 -11l-9 -5l-5 -4h-2h-2l-2 1l-1 2l-4 14l-7 18v3v5l2 2l10 9l4 9l13 10l11 17l13 9l6 12zM82 164l-6 13l3 7l3 7l4 1l7 -6l2 1l-3 6l-8 6l-2 13l3 13l7 29l7 13l13 16l6 31l10 23l20 29l5 14 l12 16l8 20l18 20l3 9l15 20l24 33l11 8l4 10l12 11l8 10l10 6l8 11l21 15l8 8l12 6l4 9l18 16l12 12l17 9l5 10l13 5l9 10l16 4l11 9l12 7l29 13l34 6l19 -3l16 -6l5 -7l10 -15l2 -14l-1 -11l-7 -43l-1 -11l-6 -14l-4 -21l-7 -9l-7 -5l-8 -1l-11 3l-8 8l-4 16l2 10l2 3 l19 18l9 13l7 28l-1 5l-1 2l-6 4l-10 -2l-10 2l-17 -8l-19 -7l-14 -14l-25 -15l-13 -10l-7 -9l-14 -2l-5 -11l-14 -8l-7 -12l-7 -4l-12 -14l-10 -8h-5l-5 -11l-7 -9l-18 -9l1 -12l-1 -5l-2 -1l-21 -19l-3 -14l-8 -10l-10 -17l-8 -8l-5 -16l-11 -8l-7 -14l-10 -7l-1 -5l2 -11 v-1l-1 -2l-4 -5l-9 -6l-5 -13l-4 -6l-12 -13l1 -10l-9 -23l-11 -19l-10 -5l2 -16l-7 -20l2 -9l-8 -6l1 -11l-9 -36l5 -17l-4 -9l2 -11l5 -22l4 -3l7 -1l10 1l10 2l11 8l28 22l8 9l6 4l8 5l6 10l23 26l21 30l7 6l8 17l9 8l11 12l7 12l16 17l9 13l8 12l10 7l5 11l13 6l-1 14 l2 3l3 4l10 5l1 14l18 12l8 22l20 24l1 12l12 9v10l9 11l2 5l8 7l2 10l16 22l12 14l6 3h5l15 -4l14 -7l8 -11l3 -11l-1 -2l-10 -28l-5 -24l-6 -15l-6 -16l2 -11l-8 -16l-5 -25l-2 -5l-2 -2l-10 -3l-3 -12l-1 -31l-8 -11l-11 -20l-6 -31l-8 -10l2 -9l-8 -20l2 -14l-4 -11 l1 -23l-3 -12v-5l2 -2l10 5l11 6l28 24l29 18l8 8l32 29l12 8l8 8l5 1l5 -1l2 -2l1 -2l-4 -26l-4 -22l-7 -9l-7 -7l-8 -4l-8 -11l-13 -4l-4 -7l-10 -4l-10 -16l-13 -3l-20 -16l-11 -8l-30 -5l-12 -1l-6 2l-3 7h-11l-5 7l-8 5l-6 11l-8 11l-6 28l-2 11l2 13l2 22l5 17l1 19 l14 53v19l-5 -10l-15 -20l-17 -15l-5 -9l4 -7l-7 -10l-12 -16l-6 -13l-13 -1l-3 -3l1 -12l-13 -12l-2 -7l-6 -4l1 -10l-8 -7l-5 -13l-3 -3l-2 -2h-11l1 -17l-10 -7l-17 -24l-25 -26l-7 -9l-10 -6l-11 -12l-9 -3l-9 -6l-23 -4l-14 -5l-3 -1l-14 5l-20 10l-11 2l-7 10l-17 14 l-5 8l-10 28l-6 30l1 7l3 12l-1 3l-3 5l-1 1l1 2l1 3z" />
<glyph unicode="&#xc4;" horiz-adv-x="594" d="M439 783l-6 -15l-10 -6l-8 -6h-2h-2l-7 4l-16 9l-7 8l-7 12l-2 10l3 12l13 14l14 12l7 2l10 -3l5 -5l11 -16l11 -13l1 -5l-1 -6zM477 821l21 12l5 5l9 -2l13 -9l18 -23l2 -10l-1 -6l-1 -2l-12 -9l-4 -7l-12 -3l-4 -8l-10 -6l-16 5l-10 17l-8 6l-3 5l-2 8l1 3l6 12z M82 164l-6 13l3 7l3 7l4 1l7 -6l2 1l-3 6l-8 6l-2 13l3 13l7 29l7 13l13 16l6 31l10 23l20 29l5 14l12 16l8 20l18 20l3 9l15 20l24 33l11 8l4 10l12 11l8 10l10 6l8 11l21 15l8 8l12 6l4 9l18 16l12 12l17 9l5 10l13 5l9 10l16 4l11 9l12 7l29 13l34 6l19 -3l16 -6l5 -7 l10 -15l2 -14l-1 -11l-7 -43l-1 -11l-6 -14l-4 -21l-7 -9l-7 -5l-8 -1l-11 3l-8 8l-4 16l2 10l2 3l19 18l9 13l7 28l-1 5l-1 2l-6 4l-10 -2l-10 2l-17 -8l-19 -7l-14 -14l-25 -15l-13 -10l-7 -9l-14 -2l-5 -11l-14 -8l-7 -12l-7 -4l-12 -14l-10 -8h-5l-5 -11l-7 -9l-18 -9 l1 -12l-1 -5l-2 -1l-21 -19l-3 -14l-8 -10l-10 -17l-8 -8l-5 -16l-11 -8l-7 -14l-10 -7l-1 -5l2 -11v-1l-1 -2l-4 -5l-9 -6l-5 -13l-4 -6l-12 -13l1 -10l-9 -23l-11 -19l-10 -5l2 -16l-7 -20l2 -9l-8 -6l1 -11l-9 -36l5 -17l-4 -9l2 -11l5 -22l4 -3l7 -1l10 1l10 2l11 8 l28 22l8 9l6 4l8 5l6 10l23 26l21 30l7 6l8 17l9 8l11 12l7 12l16 17l9 13l8 12l10 7l5 11l13 6l-1 14l2 3l3 4l10 5l1 14l18 12l8 22l20 24l1 12l12 9v10l9 11l2 5l8 7l2 10l16 22l12 14l6 3h5l15 -4l14 -7l8 -11l3 -11l-1 -2l-10 -28l-5 -24l-6 -15l-6 -16l2 -11l-8 -16 l-5 -25l-2 -5l-2 -2l-10 -3l-3 -12l-1 -31l-8 -11l-11 -20l-6 -31l-8 -10l2 -9l-8 -20l2 -14l-4 -11l1 -23l-3 -12v-5l2 -2l10 5l11 6l28 24l29 18l8 8l32 29l12 8l8 8l5 1l5 -1l2 -2l1 -2l-4 -26l-4 -22l-7 -9l-7 -7l-8 -4l-8 -11l-13 -4l-4 -7l-10 -4l-10 -16l-13 -3 l-20 -16l-11 -8l-30 -5l-12 -1l-6 2l-3 7h-11l-5 7l-8 5l-6 11l-8 11l-6 28l-2 11l2 13l2 22l5 17l1 19l14 53v19l-5 -10l-15 -20l-17 -15l-5 -9l4 -7l-7 -10l-12 -16l-6 -13l-13 -1l-3 -3l1 -12l-13 -12l-2 -7l-6 -4l1 -10l-8 -7l-5 -13l-3 -3l-2 -2h-11l1 -17l-10 -7 l-17 -24l-25 -26l-7 -9l-10 -6l-11 -12l-9 -3l-9 -6l-23 -4l-14 -5l-3 -1l-14 5l-20 10l-11 2l-7 10l-17 14l-5 8l-10 28l-6 30l1 7l3 12l-1 3l-3 5l-1 1l1 2l1 3z" />
<glyph unicode="&#xc5;" horiz-adv-x="594" d="M527 806l5 -11l8 -27v-3l-5 -14l-15 -32l-3 -5l-17 -15l-30 -10l-5 1l-17 7l-10 3l-11 6l-6 7l-2 20l1 21l14 34l7 10l7 6l10 6l5 3l14 2l21 2h1l18 -6zM454 740l12 -13l2 -1l8 3l17 18l7 24l-2 8l-4 4l-7 2l-6 -2l-5 -4l-5 -9l-8 -11l-4 -9zM82 164l-6 13l3 7l3 7l4 1 l7 -6l2 1l-3 6l-8 6l-2 13l3 13l7 29l7 13l13 16l6 31l10 23l20 29l5 14l12 16l8 20l18 20l3 9l15 20l24 33l11 8l4 10l12 11l8 10l10 6l8 11l21 15l8 8l12 6l4 9l18 16l12 12l17 9l5 10l13 5l9 10l16 4l11 9l12 7l29 13l34 6l19 -3l16 -6l5 -7l10 -15l2 -14l-1 -11l-7 -43 l-1 -11l-6 -14l-4 -21l-7 -9l-7 -5l-8 -1l-11 3l-8 8l-4 16l2 10l2 3l19 18l9 13l7 28l-1 5l-1 2l-6 4l-10 -2l-10 2l-17 -8l-19 -7l-14 -14l-25 -15l-13 -10l-7 -9l-14 -2l-5 -11l-14 -8l-7 -12l-7 -4l-12 -14l-10 -8h-5l-5 -11l-7 -9l-18 -9l1 -12l-1 -5l-2 -1l-21 -19 l-3 -14l-8 -10l-10 -17l-8 -8l-5 -16l-11 -8l-7 -14l-10 -7l-1 -5l2 -11v-1l-1 -2l-4 -5l-9 -6l-5 -13l-4 -6l-12 -13l1 -10l-9 -23l-11 -19l-10 -5l2 -16l-7 -20l2 -9l-8 -6l1 -11l-9 -36l5 -17l-4 -9l2 -11l5 -22l4 -3l7 -1l10 1l10 2l11 8l28 22l8 9l6 4l8 5l6 10l23 26 l21 30l7 6l8 17l9 8l11 12l7 12l16 17l9 13l8 12l10 7l5 11l13 6l-1 14l2 3l3 4l10 5l1 14l18 12l8 22l20 24l1 12l12 9v10l9 11l2 5l8 7l2 10l16 22l12 14l6 3h5l15 -4l14 -7l8 -11l3 -11l-1 -2l-10 -28l-5 -24l-6 -15l-6 -16l2 -11l-8 -16l-5 -25l-2 -5l-2 -2l-10 -3 l-3 -12l-1 -31l-8 -11l-11 -20l-6 -31l-8 -10l2 -9l-8 -20l2 -14l-4 -11l1 -23l-3 -12v-5l2 -2l10 5l11 6l28 24l29 18l8 8l32 29l12 8l8 8l5 1l5 -1l2 -2l1 -2l-4 -26l-4 -22l-7 -9l-7 -7l-8 -4l-8 -11l-13 -4l-4 -7l-10 -4l-10 -16l-13 -3l-20 -16l-11 -8l-30 -5l-12 -1 l-6 2l-3 7h-11l-5 7l-8 5l-6 11l-8 11l-6 28l-2 11l2 13l2 22l5 17l1 19l14 53v19l-5 -10l-15 -20l-17 -15l-5 -9l4 -7l-7 -10l-12 -16l-6 -13l-13 -1l-3 -3l1 -12l-13 -12l-2 -7l-6 -4l1 -10l-8 -7l-5 -13l-3 -3l-2 -2h-11l1 -17l-10 -7l-17 -24l-25 -26l-7 -9l-10 -6 l-11 -12l-9 -3l-9 -6l-23 -4l-14 -5l-3 -1l-14 5l-20 10l-11 2l-7 10l-17 14l-5 8l-10 28l-6 30l1 7l3 12l-1 3l-3 5l-1 1l1 2l1 3z" />
<glyph unicode="&#xc7;" horiz-adv-x="526" d="M73 -115l8 22l19 16l10 1l34 9l7 8l3 11v5l-4 11l-8 5l-8 9l-2 6l1 4l15 18l16 21l-13 2l-10 4l-3 4l-7 11l-9 4l-6 14l-7 7l-4 11l-10 22l-8 64l1 14l6 17l5 21l17 46l11 32l6 7l9 23l7 7l6 11l7 1l-3 6l-2 11l7 9l7 6l4 12l6 8l6 9l7 1l6 3l8 -9l6 6l-10 6l-3 7l-3 6v1 v2l2 3l9 7l10 4l-5 4l-1 5l9 9l6 13l10 5l2 -2l5 1l2 12l-1 9v1l1 3l5 6l10 9l3 9l20 15l7 10l13 10l11 6l3 -3l8 -2l-5 -8l7 4l2 9l-6 8v4l5 6l30 24l19 11l7 8h7l5 -1l3 -4l3 1l-2 10l5 1l9 8l26 10l10 7l37 8l15 6l4 -1l8 -7l8 4l10 -9l15 -11l2 -4l4 -8l4 -15v-1l-2 -19 l1 -21l-9 -17l-3 -18l-8 -16l-6 -20l-7 -12l-5 -13l-26 -36l-28 -44l-6 -8l-10 -4l2 -10l-3 -8l-10 -11l-14 -9l-11 -3l-13 3l-5 4l-12 15l-2 8l3 10l3 6l6 10l29 22l10 8l9 1l3 7l-1 5l8 11l7 5l7 11l8 4l7 11l13 23l3 12l9 6l1 16l8 6l1 13l9 27v11v10l-2 6l-5 4l-8 2 l-5 -1l-35 -15l-4 -1h-3l-6 3l-2 -2l-3 -8l-7 -2l-9 -9h-8l-9 -13l-10 -5l-4 -10l-11 -2l-10 -17h-9l-3 -13l-14 -13l-6 -8l-10 -2l-2 -14l-9 -5l-5 -11l-6 -5l-6 -5l-6 -1l1 -10l-12 -13l-2 -14l-11 -16l-7 -9l-2 -9l-6 -12l-4 -3l-12 -3l1 -15l-8 -13l-5 -13l-11 -15 l-1 -10l-6 -12l-12 -29l-11 -11l-2 -11l-1 -10l-10 -13l-5 -20l-9 -8l5 -3l1 -2v-3l-9 -23l-9 -22l4 -4l1 -5l-2 -11l-2 -17v-3l3 -10l-5 -2v-7l8 -7l8 -12l5 -10h12l13 3l10 1l15 7l22 6l9 11l9 2l11 2l9 10l7 9l21 12l12 11l10 4l7 9l7 5l7 6l24 22l8 13l4 3h1l9 -1l5 11 l16 10l5 10l13 9l13 14h11l3 11l2 4l2 1l9 2l4 11l6 6l7 1l3 2l1 7l3 5l4 2l14 7l12 5l3 -1l8 -10l3 -9v-1l-1 -2l-10 -10l-2 -9l-20 -19l-3 -11l-13 -8l-15 -19l-8 -3l-4 -10l-18 -16l-5 -13l-11 -3l-22 -27h-9l-7 -11l-12 -3l-9 -13l-10 -13l-8 1l-1 7l-8 -6l2 -11 l-11 -13l-11 -6l-12 -3l-4 -10l-13 -4l-13 -14h-12l-9 -7h-12l-9 -8l-5 -1l-5 -5l-11 3v9l-3 -10l-2 -8l-13 -1l-8 -12l-8 -13l-2 -12l10 -4l8 -9l3 -11l-5 -27l-2 -10l-8 -10l-3 -12l-12 -5l-11 -7l-19 -6l-11 -8h-10h-11l-12 -8l-10 3l-8 -2l-16 7l-4 5z" />
<glyph unicode="&#xc8;" horiz-adv-x="565" d="M530 766l9 -11l1 -4l-1 -5l-3 -2l-15 -3l-11 1h-14l-9 10l-12 12v10l-9 14l-4 8l-3 5v13l-12 25v2l2 10l10 10l16 4l5 -1l11 -3h16l5 -4l3 -8l7 -41l8 -27l-2 -11zM67 104l4 15l-4 5v2v4l2 4l1 7l9 11l-5 5l5 11l4 16l10 8v15l1 5l1 2l14 12l30 42l18 11l4 9l12 8l17 18 l6 6l8 3l12 2l6 11l8 6l8 5l19 8l13 9l19 10l8 8l10 1l15 6l3 7l-6 -4l-18 -3l-8 -6h-4h-6l-11 1l-7 4l-22 12l-2 2l-2 2l-2 12l1 5l2 21l1 10l10 13l13 26l16 17l6 13l9 5l9 14l13 7l1 6l14 10l8 6l10 14l10 1l7 6l7 9l33 22l10 12l6 1l9 -3l20 19l4 2h3l10 -3v6l11 6l9 5 l13 1l9 5l13 4l10 -1l5 3l8 3l5 -1l11 -6l11 2l15 -9l10 -2l7 -8l9 -14l1 -5l2 -26v-9v-1l-6 -14v-10l-8 -15l-5 -13l-8 -9l-3 -9l-3 -5l-3 -2l-8 -1h-5l-9 2l-6 10l-6 18l1 6l8 10l14 9l10 2v9l8 5l2 10l1 9l-5 14l-4 9l-4 4l-3 1l-1 -1l-7 -2h-15l-12 -4l-11 -2l-18 -10 l-16 -2l-4 -5l-4 -2l-14 -15l-35 -20l-20 -20l-21 -17l-16 -20l-17 -18l-12 -22l-8 -9l-8 -5l-16 -35l-7 -8l-1 -6l11 3l11 6l37 14l48 26l13 3l41 15l23 4l19 -5l8 -8l3 -9l-1 -4l-2 -5l-6 -10l-9 -12l-18 -17l-6 -4l-5 -3l-3 -1l-7 1l-26 -6l-14 -3l-30 -19l-7 -1l-17 -14 l-14 -5l-20 -15l-10 -2l-9 -14l-9 -6l-5 4l-4 -7l-13 -17l-16 -5l-1 -10l-2 -4l-1 -2l-13 -1v-11l-14 -7l-5 -5h-1l-8 4l2 -10l-12 -20l-7 -3l-8 -15l-5 -1l-6 -11l-1 -8l-1 -6l-4 -4l-6 -4l-5 -8l-3 -11l-4 -8l-4 -25l-5 -12l-1 -5l5 -22l4 -11l7 -3l5 -6h10l4 3l10 -3l8 1 l8 -2l11 5l5 -4l10 6l10 1l7 9l10 -2l8 6l56 26l8 9l22 16l24 19l13 6l10 7l7 3l11 15l16 3l11 14l12 6l2 8l11 5l3 12l9 4l12 11l15 9l10 13l11 6l13 14l19 14l13 12l8 6l11 3l-1 -11l-6 -32l-2 -3l-38 -33l-10 -12l-10 -10l-6 -7l-8 -1l-6 -9l-14 -10l-10 -11l-8 -3 l-29 -33l-18 -12l-6 -7l-9 -4l-18 -20l-10 -7l-5 -1l-17 5l-5 -1l1 -13l-8 -3l-5 -12l-19 -15l-8 -7l-8 -3l-9 -5l-19 -10l-11 -6l-8 3l-3 3l-9 -14l-5 -5l-1 -1l-31 -10l-21 -10l-9 2l-13 -3l-12 1l-12 -2l-7 3l-18 6l-9 3l-4 3l-1 4h-5l-2 6l-10 5l-10 7l-2 3l-3 9l-17 16 l-6 17l-2 7l4 7z" />
<glyph unicode="&#xc9;" horiz-adv-x="565" d="M594 863l16 2l20 -3l7 -6l2 -8l-1 -4l-2 -3l-17 -24l-7 -13l-11 -9l-9 -13l-29 -18l-8 -9l-6 -2l-9 -8l-5 -3l-2 -1l-9 1l-11 -1l-6 4l-9 -4l-3 3l-4 5l-1 4l1 5l2 3l13 9l10 15l11 8l7 10l10 8l4 9l7 9l8 22l7 10l8 6l4 1zM67 104l4 15l-4 5v2v4l2 4l1 7l9 11l-5 5l5 11 l4 16l10 8v15l1 5l1 2l14 12l30 42l18 11l4 9l12 8l17 18l6 6l8 3l12 2l6 11l8 6l8 5l19 8l13 9l19 10l8 8l10 1l15 6l3 7l-6 -4l-18 -3l-8 -6h-4h-6l-11 1l-7 4l-22 12l-2 2l-2 2l-2 12l1 5l2 21l1 10l10 13l13 26l16 17l6 13l9 5l9 14l13 7l1 6l14 10l8 6l10 14l10 1l7 6 l7 9l33 22l10 12l6 1l9 -3l20 19l4 2h3l10 -3v6l11 6l9 5l13 1l9 5l13 4l10 -1l5 3l8 3l5 -1l11 -6l11 2l15 -9l10 -2l7 -8l9 -14l1 -5l2 -26v-9v-1l-6 -14v-10l-8 -15l-5 -13l-8 -9l-3 -9l-3 -5l-3 -2l-8 -1h-5l-9 2l-6 10l-6 18l1 6l8 10l14 9l10 2v9l8 5l2 10l1 9l-5 14 l-4 9l-4 4l-3 1l-1 -1l-7 -2h-15l-12 -4l-11 -2l-18 -10l-16 -2l-4 -5l-4 -2l-14 -15l-35 -20l-20 -20l-21 -17l-16 -20l-17 -18l-12 -22l-8 -9l-8 -5l-16 -35l-7 -8l-1 -6l11 3l11 6l37 14l48 26l13 3l41 15l23 4l19 -5l8 -8l3 -9l-1 -4l-2 -5l-6 -10l-9 -12l-18 -17l-6 -4 l-5 -3l-3 -1l-7 1l-26 -6l-14 -3l-30 -19l-7 -1l-17 -14l-14 -5l-20 -15l-10 -2l-9 -14l-9 -6l-5 4l-4 -7l-13 -17l-16 -5l-1 -10l-2 -4l-1 -2l-13 -1v-11l-14 -7l-5 -5h-1l-8 4l2 -10l-12 -20l-7 -3l-8 -15l-5 -1l-6 -11l-1 -8l-1 -6l-4 -4l-6 -4l-5 -8l-3 -11l-4 -8 l-4 -25l-5 -12l-1 -5l5 -22l4 -11l7 -3l5 -6h10l4 3l10 -3l8 1l8 -2l11 5l5 -4l10 6l10 1l7 9l10 -2l8 6l56 26l8 9l22 16l24 19l13 6l10 7l7 3l11 15l16 3l11 14l12 6l2 8l11 5l3 12l9 4l12 11l15 9l10 13l11 6l13 14l19 14l13 12l8 6l11 3l-1 -11l-6 -32l-2 -3l-38 -33 l-10 -12l-10 -10l-6 -7l-8 -1l-6 -9l-14 -10l-10 -11l-8 -3l-29 -33l-18 -12l-6 -7l-9 -4l-18 -20l-10 -7l-5 -1l-17 5l-5 -1l1 -13l-8 -3l-5 -12l-19 -15l-8 -7l-8 -3l-9 -5l-19 -10l-11 -6l-8 3l-3 3l-9 -14l-5 -5l-1 -1l-31 -10l-21 -10l-9 2l-13 -3l-12 1l-12 -2l-7 3 l-18 6l-9 3l-4 3l-1 4h-5l-2 6l-10 5l-10 7l-2 3l-3 9l-17 16l-6 17l-2 7l4 7z" />
<glyph unicode="&#xca;" horiz-adv-x="565" d="M407 759l9 6l19 17l9 5l14 14l12 8l30 31l15 9l11 13l9 5l11 2l14 -2l2 -1l7 -9l7 -7l6 -15l11 -16l3 -13l8 -14l5 -14l13 -24l-3 -9l-2 -2h-2h-13l-10 -2h-1l-7 2l-13 5l-7 8l-7 10l-11 11l-6 11l-9 11l-4 -9l-10 -4l-21 -16l-11 -5l-7 -9l-12 -7l-8 -6l-6 -2l-14 3 l-10 3l-10 -3l-5 -2l-5 2l-3 2v3v2zM67 104l4 15l-4 5v2v4l2 4l1 7l9 11l-5 5l5 11l4 16l10 8v15l1 5l1 2l14 12l30 42l18 11l4 9l12 8l17 18l6 6l8 3l12 2l6 11l8 6l8 5l19 8l13 9l19 10l8 8l10 1l15 6l3 7l-6 -4l-18 -3l-8 -6h-4h-6l-11 1l-7 4l-22 12l-2 2l-2 2l-2 12 l1 5l2 21l1 10l10 13l13 26l16 17l6 13l9 5l9 14l13 7l1 6l14 10l8 6l10 14l10 1l7 6l7 9l33 22l10 12l6 1l9 -3l20 19l4 2h3l10 -3v6l11 6l9 5l13 1l9 5l13 4l10 -1l5 3l8 3l5 -1l11 -6l11 2l15 -9l10 -2l7 -8l9 -14l1 -5l2 -26v-9v-1l-6 -14v-10l-8 -15l-5 -13l-8 -9 l-3 -9l-3 -5l-3 -2l-8 -1h-5l-9 2l-6 10l-6 18l1 6l8 10l14 9l10 2v9l8 5l2 10l1 9l-5 14l-4 9l-4 4l-3 1l-1 -1l-7 -2h-15l-12 -4l-11 -2l-18 -10l-16 -2l-4 -5l-4 -2l-14 -15l-35 -20l-20 -20l-21 -17l-16 -20l-17 -18l-12 -22l-8 -9l-8 -5l-16 -35l-7 -8l-1 -6l11 3l11 6 l37 14l48 26l13 3l41 15l23 4l19 -5l8 -8l3 -9l-1 -4l-2 -5l-6 -10l-9 -12l-18 -17l-6 -4l-5 -3l-3 -1l-7 1l-26 -6l-14 -3l-30 -19l-7 -1l-17 -14l-14 -5l-20 -15l-10 -2l-9 -14l-9 -6l-5 4l-4 -7l-13 -17l-16 -5l-1 -10l-2 -4l-1 -2l-13 -1v-11l-14 -7l-5 -5h-1l-8 4 l2 -10l-12 -20l-7 -3l-8 -15l-5 -1l-6 -11l-1 -8l-1 -6l-4 -4l-6 -4l-5 -8l-3 -11l-4 -8l-4 -25l-5 -12l-1 -5l5 -22l4 -11l7 -3l5 -6h10l4 3l10 -3l8 1l8 -2l11 5l5 -4l10 6l10 1l7 9l10 -2l8 6l56 26l8 9l22 16l24 19l13 6l10 7l7 3l11 15l16 3l11 14l12 6l2 8l11 5l3 12 l9 4l12 11l15 9l10 13l11 6l13 14l19 14l13 12l8 6l11 3l-1 -11l-6 -32l-2 -3l-38 -33l-10 -12l-10 -10l-6 -7l-8 -1l-6 -9l-14 -10l-10 -11l-8 -3l-29 -33l-18 -12l-6 -7l-9 -4l-18 -20l-10 -7l-5 -1l-17 5l-5 -1l1 -13l-8 -3l-5 -12l-19 -15l-8 -7l-8 -3l-9 -5l-19 -10 l-11 -6l-8 3l-3 3l-9 -14l-5 -5l-1 -1l-31 -10l-21 -10l-9 2l-13 -3l-12 1l-12 -2l-7 3l-18 6l-9 3l-4 3l-1 4h-5l-2 6l-10 5l-10 7l-2 3l-3 9l-17 16l-6 17l-2 7l4 7z" />
<glyph unicode="&#xcb;" horiz-adv-x="565" d="M479 771l-6 -15l-10 -6l-8 -6h-2h-2l-7 4l-16 9l-7 8l-7 12l-2 10l3 12l13 14l14 12l7 2l10 -3l5 -5l11 -16l11 -13l1 -5l-1 -6zM517 809l21 12l5 5l9 -2l13 -9l18 -23l2 -10l-1 -6l-1 -2l-12 -9l-4 -7l-12 -3l-4 -8l-10 -6l-16 5l-10 17l-8 6l-3 5l-2 8l1 3l6 12z M67 104l4 15l-4 5v2v4l2 4l1 7l9 11l-5 5l5 11l4 16l10 8v15l1 5l1 2l14 12l30 42l18 11l4 9l12 8l17 18l6 6l8 3l12 2l6 11l8 6l8 5l19 8l13 9l19 10l8 8l10 1l15 6l3 7l-6 -4l-18 -3l-8 -6h-4h-6l-11 1l-7 4l-22 12l-2 2l-2 2l-2 12l1 5l2 21l1 10l10 13l13 26l16 17l6 13 l9 5l9 14l13 7l1 6l14 10l8 6l10 14l10 1l7 6l7 9l33 22l10 12l6 1l9 -3l20 19l4 2h3l10 -3v6l11 6l9 5l13 1l9 5l13 4l10 -1l5 3l8 3l5 -1l11 -6l11 2l15 -9l10 -2l7 -8l9 -14l1 -5l2 -26v-9v-1l-6 -14v-10l-8 -15l-5 -13l-8 -9l-3 -9l-3 -5l-3 -2l-8 -1h-5l-9 2l-6 10 l-6 18l1 6l8 10l14 9l10 2v9l8 5l2 10l1 9l-5 14l-4 9l-4 4l-3 1l-1 -1l-7 -2h-15l-12 -4l-11 -2l-18 -10l-16 -2l-4 -5l-4 -2l-14 -15l-35 -20l-20 -20l-21 -17l-16 -20l-17 -18l-12 -22l-8 -9l-8 -5l-16 -35l-7 -8l-1 -6l11 3l11 6l37 14l48 26l13 3l41 15l23 4l19 -5 l8 -8l3 -9l-1 -4l-2 -5l-6 -10l-9 -12l-18 -17l-6 -4l-5 -3l-3 -1l-7 1l-26 -6l-14 -3l-30 -19l-7 -1l-17 -14l-14 -5l-20 -15l-10 -2l-9 -14l-9 -6l-5 4l-4 -7l-13 -17l-16 -5l-1 -10l-2 -4l-1 -2l-13 -1v-11l-14 -7l-5 -5h-1l-8 4l2 -10l-12 -20l-7 -3l-8 -15l-5 -1 l-6 -11l-1 -8l-1 -6l-4 -4l-6 -4l-5 -8l-3 -11l-4 -8l-4 -25l-5 -12l-1 -5l5 -22l4 -11l7 -3l5 -6h10l4 3l10 -3l8 1l8 -2l11 5l5 -4l10 6l10 1l7 9l10 -2l8 6l56 26l8 9l22 16l24 19l13 6l10 7l7 3l11 15l16 3l11 14l12 6l2 8l11 5l3 12l9 4l12 11l15 9l10 13l11 6l13 14 l19 14l13 12l8 6l11 3l-1 -11l-6 -32l-2 -3l-38 -33l-10 -12l-10 -10l-6 -7l-8 -1l-6 -9l-14 -10l-10 -11l-8 -3l-29 -33l-18 -12l-6 -7l-9 -4l-18 -20l-10 -7l-5 -1l-17 5l-5 -1l1 -13l-8 -3l-5 -12l-19 -15l-8 -7l-8 -3l-9 -5l-19 -10l-11 -6l-8 3l-3 3l-9 -14l-5 -5 l-1 -1l-31 -10l-21 -10l-9 2l-13 -3l-12 1l-12 -2l-7 3l-18 6l-9 3l-4 3l-1 4h-5l-2 6l-10 5l-10 7l-2 3l-3 9l-17 16l-6 17l-2 7l4 7z" />
<glyph unicode="&#xcc;" horiz-adv-x="349" d="M317 782l9 -11l1 -4l-1 -5l-3 -2l-15 -3l-11 1h-14l-9 10l-12 12v10l-9 14l-4 8l-3 5v13l-12 25v2l2 10l10 10l16 4l5 -1l11 -3h16l5 -4l3 -8l7 -41l8 -27l-2 -11zM262 672l9 10l11 -1l3 8l9 1l39 7h2l19 -2l21 -5l10 -3l9 -9l8 -2l4 -7l23 -24l12 -17l4 -20l-1 -11l5 -3 l-2 -10l-2 -32l-5 -16v-8l-6 -13v-13l-7 -11l-8 -27l-20 -32l-25 -59l-10 -10l-6 -10l-3 -16l-5 -6l-7 -4l-11 -9l-1 -15l-11 -14l-16 -37l-6 -5l-8 -2l-1 -10l-2 -6l-1 -2l-18 -22l-9 -24l-13 -20v-6l-6 -11l-9 2l1 -15l-1 -10l-12 -24l-3 -14l-7 -9l-3 -7l-3 -5l-2 -1 l-7 -3l3 -5l-3 -10l2 -24l-4 -10l14 -22l1 -5l-3 -12l-8 -8l-19 -5l-21 5l-9 5l-11 11l-16 18l-4 7l-5 25l-1 11l5 5v5l4 20l3 12l15 28l12 28l7 8l5 17l14 24l4 10l8 3v12l13 19l8 17l6 5l7 16l16 7l-3 12l5 13l5 11l18 24l5 13l6 4l3 12l8 14l13 17l4 12l7 10l7 1l1 12 l2 10l8 9l9 8l-3 9l10 8l7 9l1 15l16 27l3 14l8 13l3 7l1 3v1l-1 15l5 5l3 6l1 6l-1 5l-2 7l-2 12l-7 9l-15 6l-10 7l-16 1h-10l-11 1l-1 -2l-12 1l-27 -10l-17 -3l-10 -3l-2 -2l-8 -9l-2 -2l-2 -1l-6 3l-5 -3l-2 -12l-21 -14l-18 -18l-6 -5l-11 -11l-16 -19l-9 -15l-8 -8 l-7 -8l-1 -5l-3 -20l-10 -11l5 -16v-3l-1 -6l-5 -11l13 -12l2 -11l-4 -15l-15 -14l-14 -4l-15 3l-7 7l-3 16l-1 10l2 18l3 11l2 17l16 31l6 16l11 18l7 11l8 9l7 18l13 13l4 10l16 10l2 7l2 4l3 3l21 16l10 13l19 12l7 8l9 4l12 10z" />
<glyph unicode="&#xcd;" horiz-adv-x="349" d="M381 879l16 2l20 -3l7 -6l2 -8l-1 -4l-2 -3l-17 -24l-7 -13l-11 -9l-9 -13l-29 -18l-8 -9l-6 -2l-9 -8l-5 -3l-2 -1l-9 1l-11 -1l-6 4l-9 -4l-3 3l-4 5l-1 4l1 5l2 3l13 9l10 15l11 8l7 10l10 8l4 9l7 9l8 22l7 10l8 6l4 1zM262 672l9 10l11 -1l3 8l9 1l39 7h2l19 -2 l21 -5l10 -3l9 -9l8 -2l4 -7l23 -24l12 -17l4 -20l-1 -11l5 -3l-2 -10l-2 -32l-5 -16v-8l-6 -13v-13l-7 -11l-8 -27l-20 -32l-25 -59l-10 -10l-6 -10l-3 -16l-5 -6l-7 -4l-11 -9l-1 -15l-11 -14l-16 -37l-6 -5l-8 -2l-1 -10l-2 -6l-1 -2l-18 -22l-9 -24l-13 -20v-6l-6 -11 l-9 2l1 -15l-1 -10l-12 -24l-3 -14l-7 -9l-3 -7l-3 -5l-2 -1l-7 -3l3 -5l-3 -10l2 -24l-4 -10l14 -22l1 -5l-3 -12l-8 -8l-19 -5l-21 5l-9 5l-11 11l-16 18l-4 7l-5 25l-1 11l5 5v5l4 20l3 12l15 28l12 28l7 8l5 17l14 24l4 10l8 3v12l13 19l8 17l6 5l7 16l16 7l-3 12l5 13 l5 11l18 24l5 13l6 4l3 12l8 14l13 17l4 12l7 10l7 1l1 12l2 10l8 9l9 8l-3 9l10 8l7 9l1 15l16 27l3 14l8 13l3 7l1 3v1l-1 15l5 5l3 6l1 6l-1 5l-2 7l-2 12l-7 9l-15 6l-10 7l-16 1h-10l-11 1l-1 -2l-12 1l-27 -10l-17 -3l-10 -3l-2 -2l-8 -9l-2 -2l-2 -1l-6 3l-5 -3 l-2 -12l-21 -14l-18 -18l-6 -5l-11 -11l-16 -19l-9 -15l-8 -8l-7 -8l-1 -5l-3 -20l-10 -11l5 -16v-3l-1 -6l-5 -11l13 -12l2 -11l-4 -15l-15 -14l-14 -4l-15 3l-7 7l-3 16l-1 10l2 18l3 11l2 17l16 31l6 16l11 18l7 11l8 9l7 18l13 13l4 10l16 10l2 7l2 4l3 3l21 16l10 13 l19 12l7 8l9 4l12 10z" />
<glyph unicode="&#xce;" horiz-adv-x="349" d="M194 775l9 6l19 17l9 5l14 14l12 8l30 31l15 9l11 13l9 5l11 2l14 -2l2 -1l7 -9l7 -7l6 -15l11 -16l3 -13l8 -14l5 -14l13 -24l-3 -9l-2 -2h-2h-13l-10 -2h-1l-7 2l-13 5l-7 8l-7 10l-11 11l-6 11l-9 11l-4 -9l-10 -4l-21 -16l-11 -5l-7 -9l-12 -7l-8 -6l-6 -2l-14 3 l-10 3l-10 -3l-5 -2l-5 2l-3 2v3v2zM262 672l9 10l11 -1l3 8l9 1l39 7h2l19 -2l21 -5l10 -3l9 -9l8 -2l4 -7l23 -24l12 -17l4 -20l-1 -11l5 -3l-2 -10l-2 -32l-5 -16v-8l-6 -13v-13l-7 -11l-8 -27l-20 -32l-25 -59l-10 -10l-6 -10l-3 -16l-5 -6l-7 -4l-11 -9l-1 -15l-11 -14 l-16 -37l-6 -5l-8 -2l-1 -10l-2 -6l-1 -2l-18 -22l-9 -24l-13 -20v-6l-6 -11l-9 2l1 -15l-1 -10l-12 -24l-3 -14l-7 -9l-3 -7l-3 -5l-2 -1l-7 -3l3 -5l-3 -10l2 -24l-4 -10l14 -22l1 -5l-3 -12l-8 -8l-19 -5l-21 5l-9 5l-11 11l-16 18l-4 7l-5 25l-1 11l5 5v5l4 20l3 12 l15 28l12 28l7 8l5 17l14 24l4 10l8 3v12l13 19l8 17l6 5l7 16l16 7l-3 12l5 13l5 11l18 24l5 13l6 4l3 12l8 14l13 17l4 12l7 10l7 1l1 12l2 10l8 9l9 8l-3 9l10 8l7 9l1 15l16 27l3 14l8 13l3 7l1 3v1l-1 15l5 5l3 6l1 6l-1 5l-2 7l-2 12l-7 9l-15 6l-10 7l-16 1h-10 l-11 1l-1 -2l-12 1l-27 -10l-17 -3l-10 -3l-2 -2l-8 -9l-2 -2l-2 -1l-6 3l-5 -3l-2 -12l-21 -14l-18 -18l-6 -5l-11 -11l-16 -19l-9 -15l-8 -8l-7 -8l-1 -5l-3 -20l-10 -11l5 -16v-3l-1 -6l-5 -11l13 -12l2 -11l-4 -15l-15 -14l-14 -4l-15 3l-7 7l-3 16l-1 10l2 18l3 11 l2 17l16 31l6 16l11 18l7 11l8 9l7 18l13 13l4 10l16 10l2 7l2 4l3 3l21 16l10 13l19 12l7 8l9 4l12 10z" />
<glyph unicode="&#xcf;" horiz-adv-x="349" d="M266 787l-6 -15l-10 -6l-8 -6h-2h-2l-7 4l-16 9l-7 8l-7 12l-2 10l3 12l13 14l14 12l7 2l10 -3l5 -5l11 -16l11 -13l1 -5l-1 -6zM304 825l21 12l5 5l9 -2l13 -9l18 -23l2 -10l-1 -6l-1 -2l-12 -9l-4 -7l-12 -3l-4 -8l-10 -6l-16 5l-10 17l-8 6l-3 5l-2 8l1 3l6 12z M262 672l9 10l11 -1l3 8l9 1l39 7h2l19 -2l21 -5l10 -3l9 -9l8 -2l4 -7l23 -24l12 -17l4 -20l-1 -11l5 -3l-2 -10l-2 -32l-5 -16v-8l-6 -13v-13l-7 -11l-8 -27l-20 -32l-25 -59l-10 -10l-6 -10l-3 -16l-5 -6l-7 -4l-11 -9l-1 -15l-11 -14l-16 -37l-6 -5l-8 -2l-1 -10l-2 -6 l-1 -2l-18 -22l-9 -24l-13 -20v-6l-6 -11l-9 2l1 -15l-1 -10l-12 -24l-3 -14l-7 -9l-3 -7l-3 -5l-2 -1l-7 -3l3 -5l-3 -10l2 -24l-4 -10l14 -22l1 -5l-3 -12l-8 -8l-19 -5l-21 5l-9 5l-11 11l-16 18l-4 7l-5 25l-1 11l5 5v5l4 20l3 12l15 28l12 28l7 8l5 17l14 24l4 10l8 3 v12l13 19l8 17l6 5l7 16l16 7l-3 12l5 13l5 11l18 24l5 13l6 4l3 12l8 14l13 17l4 12l7 10l7 1l1 12l2 10l8 9l9 8l-3 9l10 8l7 9l1 15l16 27l3 14l8 13l3 7l1 3v1l-1 15l5 5l3 6l1 6l-1 5l-2 7l-2 12l-7 9l-15 6l-10 7l-16 1h-10l-11 1l-1 -2l-12 1l-27 -10l-17 -3l-10 -3 l-2 -2l-8 -9l-2 -2l-2 -1l-6 3l-5 -3l-2 -12l-21 -14l-18 -18l-6 -5l-11 -11l-16 -19l-9 -15l-8 -8l-7 -8l-1 -5l-3 -20l-10 -11l5 -16v-3l-1 -6l-5 -11l13 -12l2 -11l-4 -15l-15 -14l-14 -4l-15 3l-7 7l-3 16l-1 10l2 18l3 11l2 17l16 31l6 16l11 18l7 11l8 9l7 18l13 13 l4 10l16 10l2 7l2 4l3 3l21 16l10 13l19 12l7 8l9 4l12 10z" />
<glyph unicode="&#xd1;" horiz-adv-x="743" d="M549 849l4 6l6 3l9 6l7 1l9 -2l14 -14l8 -11l2 -12l8 -14l4 -9h3l6 8l11 9l3 6l24 16l12 14l13 7l8 7l12 -3l4 -5l-3 -13l2 -10l-3 -7l-5 -13l-6 -8l-12 -13l-9 -6l-10 -12l-10 -4l-4 -3l-11 -13l-6 -10l-12 -1l-8 -8l-10 -1l-10 -1h-1l-5 1l-2 2l-2 2l-7 12l-6 4l-4 5 l-4 18l-2 9l-3 4l-3 -1l-3 -6l-7 -4l-4 -3l-1 -1l-5 -8l-14 -9l-5 -9l-7 -5l-6 -11l-9 -5l-5 -4h-2h-2l-2 1l-1 2l-4 14l-7 18v3v5l2 2l10 9l4 9l13 10l11 17l13 9l6 12zM274 515l9 1l11 7l20 5l9 3l7 -5l9 11l17 1l11 5l15 -1h3l2 -1l3 -6l4 6l3 2h1h2l17 -7h8l8 -2l3 -3 l4 -10l16 -25l1 -3v-2l-13 -31l-12 -24l-13 -16l-4 -8l-14 -15l-5 -20l-23 -23l-23 -41l-15 -15l-12 -18l-4 -10l10 10l19 23l32 28l19 20l8 3l4 6l23 20l10 14l11 5l1 7l4 5h9l1 11l12 3l2 5l4 2l4 9l21 18l5 9l13 8l7 6l6 -1l3 -3l2 10l3 4l9 7l27 14l28 19l16 6l27 16 l35 1l20 1l11 -2l12 -9l16 -12l8 -14l2 -15l-4 -18l-17 -30l-6 -14l-11 -19l-6 -17l-18 -24l-19 -40l-12 -16l-5 -16l-14 -17l-16 -41l-6 -4v-1l-5 -17l-7 -15l-8 -16l-7 -14l-8 -11l-1 -13l-5 -11l-3 -24l-2 -14l1 -4l4 -4l5 -1h5l10 5l22 15l16 14l21 16l27 22l10 2l5 10 l13 17l13 8l7 2l5 -1l9 -7l-5 -5l3 -12l-2 -10l-3 -11l-9 -6l-4 -8l-10 -7l-8 -5h-8l-4 -10l-9 -6l-22 -19l-10 -5l-10 -7l-20 -7l-12 -9l-14 -2l-16 -4l-14 -1l-13 1l-17 10l-24 16l-13 14l-8 35l-1 22l1 4l15 31l3 10l11 5l-1 13l3 7l1 9l24 37l8 14l12 31l11 14l6 20 l12 14l7 13l9 12l10 20l20 28l3 9l5 11l1 9l9 13l1 12l-15 -3l-16 -10l-39 -18l-13 -11l-19 -11l-7 -8h-10l-6 -9l-9 -6l-9 -12l-17 -5l-17 -23l-21 -7l-8 -20l-25 -16l-11 -21l-11 -4l-7 -8l-15 -19l-11 -7l-17 -16l-14 -18l-18 -14l-14 -16l-25 -27l-9 -15l-9 -8l-8 -8 l-10 -3l-7 -8l-17 -24l-20 -20l-11 -15l-9 -5l-3 -10l-13 -10l-9 -17l-7 -5l-20 -6l-9 2l-9 7l-9 15l-7 14v20l-1 9v2l1 1l15 24l8 20l9 9l11 22l11 2l2 4v12l6 8l7 14l8 6l5 9l11 20l7 8l6 11l7 5l1 8l9 12l9 6l4 13l12 13l13 19l7 7l11 15l8 7l3 12l10 2l5 12l5 7l4 11 l15 5l-1 13l15 18l8 16l1 4l-1 4l-2 2l-2 1h-1l-13 -3l-10 1l-13 -5l-22 -5l-10 -5l-10 1l-23 -13h-1h-5l-12 1l-7 -7l-8 -2l-10 -2l-6 -8h-12l-13 -13l-48 -24l-8 -10l-10 -8l-14 -22l-12 -6l-10 -9h-2l-12 1l-9 3l-8 8l-6 20l2 10l8 11l9 7l43 21l18 9l13 2l25 14l42 21 l9 7l48 19z" />
<glyph unicode="&#xd2;" horiz-adv-x="530" d="M518 755l9 -11l1 -4l-1 -5l-3 -2l-15 -3l-11 1h-14l-9 10l-12 12v10l-9 14l-4 8l-3 5v13l-12 25v2l2 10l10 10l16 4l5 -1l11 -3h16l5 -4l3 -8l7 -41l8 -27l-2 -11zM84 197l-2 15l1 15l8 13l-1 11l1 5l4 4l8 6l-3 10l10 13l-1 16l9 12l3 13l3 6l4 3l6 2v11l2 5l1 8l13 5 l-1 8l9 9l-3 10l13 12l12 19l5 14l5 7l5 2h8l3 17l16 19l8 11l9 7l9 16l7 4l9 6l1 7l9 7l10 13l8 6l5 13l11 3l6 9l26 25l6 3l11 4l7 10l6 4l3 8l11 2l24 16l1 1l10 1l6 -1l4 -3l7 -10l5 -12l13 11h13l8 5l13 4l12 9l20 -3l15 7l27 -4h22l12 -5l9 -3l7 -6l6 -8l10 -6l4 -9 l13 -29l5 -16v-1l-1 -26l1 -16l-7 -12l-2 -24l-18 -39l-6 -24l-11 -25l-2 -1l-4 -1l-5 -12l-8 -22l-2 -2l-14 -12v-14l-13 -17l-10 -21l-26 -31l-7 -13l-8 -7l-22 -34l-14 -12l-6 -6l-11 -6l-1 -11l-7 -9l-41 -36l-21 -29l-18 -10l-7 -9l-9 -2l-5 -10l-10 -4l-13 -15l-10 -3 l-15 -10l-17 -5l-11 -2l-2 -6l-13 -4l-11 -4l-6 -8l-14 1l-11 -3h-5l-5 -5l-8 3l-7 -1l-12 -3l-4 1l-22 9h-17l-15 13l-19 15l-6 11l-6 10l-2 12l-5 10l-1 20l-3 10l1 16l-3 18v2l5 19zM335 157l3 14l12 6l12 20l9 2l3 3l3 13l9 9l15 19l11 11l18 26l9 9l4 10l15 10v10l3 10 l4 5l19 16l2 3l2 6l1 9l10 14l4 8l7 7l8 12l5 11l11 14l7 21l9 6v13l8 11l11 31l7 12l-2 9l5 15l-3 16l4 12l-1 9l1 9v1l-10 18l-4 9l-15 2l-15 -1l-17 2l-35 -13l-10 -1l-9 -3l-5 -4l-6 -8l-10 1l-5 -14l-17 -11l-21 -21l-29 -33l-7 -13l-3 -12l-14 -21l-1 -11l-2 -3h-5 l3 -11l-2 -22l4 -28l-3 -19l-11 -11l-16 -4l-11 3l-8 9l-4 19l-2 17l5 26l8 20l11 13l5 19l29 39l13 26l21 18l14 20l10 10l14 11l-17 -4l-25 -19l-14 -7l-6 -10l-4 -5l-11 -10l-10 -14l-14 -10l-3 -12l-8 -8l-5 -11l-8 -5l-3 -10l-15 -8l1 -10l-19 -28l-2 -7l-4 -11l-11 -9 l-8 -25l-42 -64l-4 -15l-7 -8l-11 -36l-6 -6l-2 -12l-5 -6l-6 -22l-8 -11l2 -8l-4 -12l-6 -18l-2 -20l-6 -27l1 -11l-1 -11l2 -10l-2 -11v-1l3 -9l14 -13l22 -6l42 11l12 5l16 16l16 5l14 14l9 3l9 9l9 5l5 9l8 6l9 12h7z" />
<glyph unicode="&#xd3;" horiz-adv-x="530" d="M582 852l16 2l20 -3l7 -6l2 -8l-1 -4l-2 -3l-17 -24l-7 -13l-11 -9l-9 -13l-29 -18l-8 -9l-6 -2l-9 -8l-5 -3l-2 -1l-9 1l-11 -1l-6 4l-9 -4l-3 3l-4 5l-1 4l1 5l2 3l13 9l10 15l11 8l7 10l10 8l4 9l7 9l8 22l7 10l8 6l4 1zM84 197l-2 15l1 15l8 13l-1 11l1 5l4 4l8 6 l-3 10l10 13l-1 16l9 12l3 13l3 6l4 3l6 2v11l2 5l1 8l13 5l-1 8l9 9l-3 10l13 12l12 19l5 14l5 7l5 2h8l3 17l16 19l8 11l9 7l9 16l7 4l9 6l1 7l9 7l10 13l8 6l5 13l11 3l6 9l26 25l6 3l11 4l7 10l6 4l3 8l11 2l24 16l1 1l10 1l6 -1l4 -3l7 -10l5 -12l13 11h13l8 5l13 4 l12 9l20 -3l15 7l27 -4h22l12 -5l9 -3l7 -6l6 -8l10 -6l4 -9l13 -29l5 -16v-1l-1 -26l1 -16l-7 -12l-2 -24l-18 -39l-6 -24l-11 -25l-2 -1l-4 -1l-5 -12l-8 -22l-2 -2l-14 -12v-14l-13 -17l-10 -21l-26 -31l-7 -13l-8 -7l-22 -34l-14 -12l-6 -6l-11 -6l-1 -11l-7 -9l-41 -36 l-21 -29l-18 -10l-7 -9l-9 -2l-5 -10l-10 -4l-13 -15l-10 -3l-15 -10l-17 -5l-11 -2l-2 -6l-13 -4l-11 -4l-6 -8l-14 1l-11 -3h-5l-5 -5l-8 3l-7 -1l-12 -3l-4 1l-22 9h-17l-15 13l-19 15l-6 11l-6 10l-2 12l-5 10l-1 20l-3 10l1 16l-3 18v2l5 19zM335 157l3 14l12 6l12 20 l9 2l3 3l3 13l9 9l15 19l11 11l18 26l9 9l4 10l15 10v10l3 10l4 5l19 16l2 3l2 6l1 9l10 14l4 8l7 7l8 12l5 11l11 14l7 21l9 6v13l8 11l11 31l7 12l-2 9l5 15l-3 16l4 12l-1 9l1 9v1l-10 18l-4 9l-15 2l-15 -1l-17 2l-35 -13l-10 -1l-9 -3l-5 -4l-6 -8l-10 1l-5 -14 l-17 -11l-21 -21l-29 -33l-7 -13l-3 -12l-14 -21l-1 -11l-2 -3h-5l3 -11l-2 -22l4 -28l-3 -19l-11 -11l-16 -4l-11 3l-8 9l-4 19l-2 17l5 26l8 20l11 13l5 19l29 39l13 26l21 18l14 20l10 10l14 11l-17 -4l-25 -19l-14 -7l-6 -10l-4 -5l-11 -10l-10 -14l-14 -10l-3 -12 l-8 -8l-5 -11l-8 -5l-3 -10l-15 -8l1 -10l-19 -28l-2 -7l-4 -11l-11 -9l-8 -25l-42 -64l-4 -15l-7 -8l-11 -36l-6 -6l-2 -12l-5 -6l-6 -22l-8 -11l2 -8l-4 -12l-6 -18l-2 -20l-6 -27l1 -11l-1 -11l2 -10l-2 -11v-1l3 -9l14 -13l22 -6l42 11l12 5l16 16l16 5l14 14l9 3l9 9 l9 5l5 9l8 6l9 12h7z" />
<glyph unicode="&#xd4;" horiz-adv-x="530" d="M395 748l9 6l19 17l9 5l14 14l12 8l30 31l15 9l11 13l9 5l11 2l14 -2l2 -1l7 -9l7 -7l6 -15l11 -16l3 -13l8 -14l5 -14l13 -24l-3 -9l-2 -2h-2h-13l-10 -2h-1l-7 2l-13 5l-7 8l-7 10l-11 11l-6 11l-9 11l-4 -9l-10 -4l-21 -16l-11 -5l-7 -9l-12 -7l-8 -6l-6 -2l-14 3 l-10 3l-10 -3l-5 -2l-5 2l-3 2v3v2zM84 197l-2 15l1 15l8 13l-1 11l1 5l4 4l8 6l-3 10l10 13l-1 16l9 12l3 13l3 6l4 3l6 2v11l2 5l1 8l13 5l-1 8l9 9l-3 10l13 12l12 19l5 14l5 7l5 2h8l3 17l16 19l8 11l9 7l9 16l7 4l9 6l1 7l9 7l10 13l8 6l5 13l11 3l6 9l26 25l6 3l11 4 l7 10l6 4l3 8l11 2l24 16l1 1l10 1l6 -1l4 -3l7 -10l5 -12l13 11h13l8 5l13 4l12 9l20 -3l15 7l27 -4h22l12 -5l9 -3l7 -6l6 -8l10 -6l4 -9l13 -29l5 -16v-1l-1 -26l1 -16l-7 -12l-2 -24l-18 -39l-6 -24l-11 -25l-2 -1l-4 -1l-5 -12l-8 -22l-2 -2l-14 -12v-14l-13 -17 l-10 -21l-26 -31l-7 -13l-8 -7l-22 -34l-14 -12l-6 -6l-11 -6l-1 -11l-7 -9l-41 -36l-21 -29l-18 -10l-7 -9l-9 -2l-5 -10l-10 -4l-13 -15l-10 -3l-15 -10l-17 -5l-11 -2l-2 -6l-13 -4l-11 -4l-6 -8l-14 1l-11 -3h-5l-5 -5l-8 3l-7 -1l-12 -3l-4 1l-22 9h-17l-15 13l-19 15 l-6 11l-6 10l-2 12l-5 10l-1 20l-3 10l1 16l-3 18v2l5 19zM335 157l3 14l12 6l12 20l9 2l3 3l3 13l9 9l15 19l11 11l18 26l9 9l4 10l15 10v10l3 10l4 5l19 16l2 3l2 6l1 9l10 14l4 8l7 7l8 12l5 11l11 14l7 21l9 6v13l8 11l11 31l7 12l-2 9l5 15l-3 16l4 12l-1 9l1 9v1 l-10 18l-4 9l-15 2l-15 -1l-17 2l-35 -13l-10 -1l-9 -3l-5 -4l-6 -8l-10 1l-5 -14l-17 -11l-21 -21l-29 -33l-7 -13l-3 -12l-14 -21l-1 -11l-2 -3h-5l3 -11l-2 -22l4 -28l-3 -19l-11 -11l-16 -4l-11 3l-8 9l-4 19l-2 17l5 26l8 20l11 13l5 19l29 39l13 26l21 18l14 20l10 10 l14 11l-17 -4l-25 -19l-14 -7l-6 -10l-4 -5l-11 -10l-10 -14l-14 -10l-3 -12l-8 -8l-5 -11l-8 -5l-3 -10l-15 -8l1 -10l-19 -28l-2 -7l-4 -11l-11 -9l-8 -25l-42 -64l-4 -15l-7 -8l-11 -36l-6 -6l-2 -12l-5 -6l-6 -22l-8 -11l2 -8l-4 -12l-6 -18l-2 -20l-6 -27l1 -11l-1 -11 l2 -10l-2 -11v-1l3 -9l14 -13l22 -6l42 11l12 5l16 16l16 5l14 14l9 3l9 9l9 5l5 9l8 6l9 12h7z" />
<glyph unicode="&#xd5;" horiz-adv-x="530" d="M423 849l4 6l6 3l9 6l7 1l9 -2l14 -14l8 -11l2 -12l8 -14l4 -9h3l6 8l11 9l3 6l24 16l12 14l13 7l8 7l12 -3l4 -5l-3 -13l2 -10l-3 -7l-5 -13l-6 -8l-12 -13l-9 -6l-10 -12l-10 -4l-4 -3l-11 -13l-6 -10l-12 -1l-8 -8l-10 -1l-10 -1h-1l-5 1l-2 2l-2 2l-7 12l-6 4l-4 5 l-4 18l-2 9l-3 4l-3 -1l-3 -6l-7 -4l-4 -3l-1 -1l-5 -8l-14 -9l-5 -9l-7 -5l-6 -11l-9 -5l-5 -4h-2h-2l-2 1l-1 2l-4 14l-7 18v3v5l2 2l10 9l4 9l13 10l11 17l13 9l6 12zM84 197l-2 15l1 15l8 13l-1 11l1 5l4 4l8 6l-3 10l10 13l-1 16l9 12l3 13l3 6l4 3l6 2v11l2 5l1 8 l13 5l-1 8l9 9l-3 10l13 12l12 19l5 14l5 7l5 2h8l3 17l16 19l8 11l9 7l9 16l7 4l9 6l1 7l9 7l10 13l8 6l5 13l11 3l6 9l26 25l6 3l11 4l7 10l6 4l3 8l11 2l24 16l1 1l10 1l6 -1l4 -3l7 -10l5 -12l13 11h13l8 5l13 4l12 9l20 -3l15 7l27 -4h22l12 -5l9 -3l7 -6l6 -8l10 -6 l4 -9l13 -29l5 -16v-1l-1 -26l1 -16l-7 -12l-2 -24l-18 -39l-6 -24l-11 -25l-2 -1l-4 -1l-5 -12l-8 -22l-2 -2l-14 -12v-14l-13 -17l-10 -21l-26 -31l-7 -13l-8 -7l-22 -34l-14 -12l-6 -6l-11 -6l-1 -11l-7 -9l-41 -36l-21 -29l-18 -10l-7 -9l-9 -2l-5 -10l-10 -4l-13 -15 l-10 -3l-15 -10l-17 -5l-11 -2l-2 -6l-13 -4l-11 -4l-6 -8l-14 1l-11 -3h-5l-5 -5l-8 3l-7 -1l-12 -3l-4 1l-22 9h-17l-15 13l-19 15l-6 11l-6 10l-2 12l-5 10l-1 20l-3 10l1 16l-3 18v2l5 19zM335 157l3 14l12 6l12 20l9 2l3 3l3 13l9 9l15 19l11 11l18 26l9 9l4 10l15 10 v10l3 10l4 5l19 16l2 3l2 6l1 9l10 14l4 8l7 7l8 12l5 11l11 14l7 21l9 6v13l8 11l11 31l7 12l-2 9l5 15l-3 16l4 12l-1 9l1 9v1l-10 18l-4 9l-15 2l-15 -1l-17 2l-35 -13l-10 -1l-9 -3l-5 -4l-6 -8l-10 1l-5 -14l-17 -11l-21 -21l-29 -33l-7 -13l-3 -12l-14 -21l-1 -11 l-2 -3h-5l3 -11l-2 -22l4 -28l-3 -19l-11 -11l-16 -4l-11 3l-8 9l-4 19l-2 17l5 26l8 20l11 13l5 19l29 39l13 26l21 18l14 20l10 10l14 11l-17 -4l-25 -19l-14 -7l-6 -10l-4 -5l-11 -10l-10 -14l-14 -10l-3 -12l-8 -8l-5 -11l-8 -5l-3 -10l-15 -8l1 -10l-19 -28l-2 -7 l-4 -11l-11 -9l-8 -25l-42 -64l-4 -15l-7 -8l-11 -36l-6 -6l-2 -12l-5 -6l-6 -22l-8 -11l2 -8l-4 -12l-6 -18l-2 -20l-6 -27l1 -11l-1 -11l2 -10l-2 -11v-1l3 -9l14 -13l22 -6l42 11l12 5l16 16l16 5l14 14l9 3l9 9l9 5l5 9l8 6l9 12h7z" />
<glyph unicode="&#xd6;" horiz-adv-x="530" d="M467 760l-6 -15l-10 -6l-8 -6h-2h-2l-7 4l-16 9l-7 8l-7 12l-2 10l3 12l13 14l14 12l7 2l10 -3l5 -5l11 -16l11 -13l1 -5l-1 -6zM505 798l21 12l5 5l9 -2l13 -9l18 -23l2 -10l-1 -6l-1 -2l-12 -9l-4 -7l-12 -3l-4 -8l-10 -6l-16 5l-10 17l-8 6l-3 5l-2 8l1 3l6 12z M84 197l-2 15l1 15l8 13l-1 11l1 5l4 4l8 6l-3 10l10 13l-1 16l9 12l3 13l3 6l4 3l6 2v11l2 5l1 8l13 5l-1 8l9 9l-3 10l13 12l12 19l5 14l5 7l5 2h8l3 17l16 19l8 11l9 7l9 16l7 4l9 6l1 7l9 7l10 13l8 6l5 13l11 3l6 9l26 25l6 3l11 4l7 10l6 4l3 8l11 2l24 16l1 1l10 1 l6 -1l4 -3l7 -10l5 -12l13 11h13l8 5l13 4l12 9l20 -3l15 7l27 -4h22l12 -5l9 -3l7 -6l6 -8l10 -6l4 -9l13 -29l5 -16v-1l-1 -26l1 -16l-7 -12l-2 -24l-18 -39l-6 -24l-11 -25l-2 -1l-4 -1l-5 -12l-8 -22l-2 -2l-14 -12v-14l-13 -17l-10 -21l-26 -31l-7 -13l-8 -7l-22 -34 l-14 -12l-6 -6l-11 -6l-1 -11l-7 -9l-41 -36l-21 -29l-18 -10l-7 -9l-9 -2l-5 -10l-10 -4l-13 -15l-10 -3l-15 -10l-17 -5l-11 -2l-2 -6l-13 -4l-11 -4l-6 -8l-14 1l-11 -3h-5l-5 -5l-8 3l-7 -1l-12 -3l-4 1l-22 9h-17l-15 13l-19 15l-6 11l-6 10l-2 12l-5 10l-1 20l-3 10 l1 16l-3 18v2l5 19zM335 157l3 14l12 6l12 20l9 2l3 3l3 13l9 9l15 19l11 11l18 26l9 9l4 10l15 10v10l3 10l4 5l19 16l2 3l2 6l1 9l10 14l4 8l7 7l8 12l5 11l11 14l7 21l9 6v13l8 11l11 31l7 12l-2 9l5 15l-3 16l4 12l-1 9l1 9v1l-10 18l-4 9l-15 2l-15 -1l-17 2l-35 -13 l-10 -1l-9 -3l-5 -4l-6 -8l-10 1l-5 -14l-17 -11l-21 -21l-29 -33l-7 -13l-3 -12l-14 -21l-1 -11l-2 -3h-5l3 -11l-2 -22l4 -28l-3 -19l-11 -11l-16 -4l-11 3l-8 9l-4 19l-2 17l5 26l8 20l11 13l5 19l29 39l13 26l21 18l14 20l10 10l14 11l-17 -4l-25 -19l-14 -7l-6 -10 l-4 -5l-11 -10l-10 -14l-14 -10l-3 -12l-8 -8l-5 -11l-8 -5l-3 -10l-15 -8l1 -10l-19 -28l-2 -7l-4 -11l-11 -9l-8 -25l-42 -64l-4 -15l-7 -8l-11 -36l-6 -6l-2 -12l-5 -6l-6 -22l-8 -11l2 -8l-4 -12l-6 -18l-2 -20l-6 -27l1 -11l-1 -11l2 -10l-2 -11v-1l3 -9l14 -13l22 -6 l42 11l12 5l16 16l16 5l14 14l9 3l9 9l9 5l5 9l8 6l9 12h7z" />
<glyph unicode="&#xd7;" d="M431 133l-43 -43l-149 149l-150 -149l-42 42l149 150l-149 149l43 43l149 -149l149 149l43 -43l-149 -149z" />
<glyph unicode="&#xd9;" horiz-adv-x="576" d="M278 762l9 -11l1 -4l-1 -5l-3 -2l-15 -3l-11 1h-14l-9 10l-12 12v10l-9 14l-4 8l-3 5v13l-12 25v2l2 10l10 10l16 4l5 -1l11 -3h16l5 -4l3 -8l7 -41l8 -27l-2 -11zM248 664l11 6l36 7l38 -4l10 -4l14 -15l10 -36l1 -10l-12 -30l-18 -37l-25 -40l-7 -15l-15 -26l-3 -11 l-16 -24l-6 -17l-8 -13l-12 -30l-13 -17l-19 -40l-14 -18l-2 -14l-11 -24l-5 -23l-6 -11l-8 -32l-15 -45l-1 -25l-2 -27l2 -9l2 -3l9 -4l14 8l12 8l26 26l10 6l9 14l17 -2v11l2 10l2 2l8 4l3 6l8 8l5 13l32 39l14 20l13 1l-2 11v1v4l1 1l27 38l6 12l7 6l5 -6l4 -1l-4 9v2v3 l2 5l12 21l4 8l9 17l17 18l8 24l8 8l9 7l-2 10l12 26l21 42l13 18l20 30l9 7l12 8l17 8l22 2l6 3l6 -2l10 -1l11 -9l7 -7l2 -9l-1 -8l-4 -10l-13 -22l-7 -10l-8 -7l-2 -12l-4 -6l-6 -14l-8 -10v-11l-16 -33l-9 -30l-2 -4l-2 -1l-7 -1l6 -11l-13 -15l4 -14l-8 -14l-2 -11 l-6 -12v-10l-8 -16l-6 -11l1 -10l-6 -6v-10l-5 -4v-12l-4 -8l-3 -25l-6 -16l4 -11l-2 -19l4 -12l19 7l4 9l9 4l3 10l10 3l7 3l3 2l12 14l30 22l5 8l11 11l13 15l4 1l6 -2l6 -7l2 -7l-9 -33l-4 -10l-9 -6l-7 -10l-30 -21l-37 -30l-19 -5l-9 -8l-13 -6l-8 -6l-11 2l-6 -5 l-13 6l-21 14l-2 3l-7 15l-7 12l1 20l-4 26l11 62l-1 17l12 31l4 27l1 10l-4 -10l-4 -8l-13 -5l2 -17l-1 -3l-9 -8l-9 -6l6 -3l-4 -9l-7 -10l-8 -8l-8 -8l-4 4l-4 -10l2 -4l-1 -5l-6 -9l-11 -18l-7 -2l-5 -9l-7 -4l-1 -11l-23 -32l-15 -27l-7 -10l-6 -1l-5 -5l-5 -2l-3 -11 l-10 -6l-8 -15l-35 -26l-8 -5h-1l-12 4l-3 -9l-3 -3l-12 2l-10 -2h-2l-12 4l-21 15l-14 13l-13 20l-13 12l-2 12l-10 15l-1 12l-3 18l2 10v11l9 36v10l11 34l5 20l3 5l2 2l12 2l1 5l-6 2v2l-1 1l1 3l5 12l3 15l13 18l3 12l11 22l9 23l14 17l5 16l11 12l8 15l10 11l7 21 l13 12l10 27l17 24l6 8l3 2l9 -1l1 2l-5 12l10 14l4 -3l6 -2l-3 14l6 29l1 2l-1 5l-4 4l-6 2l-11 -1l-6 5l-2 -6l-4 -4l-2 -1h-1l-10 3l-21 -11l-11 3l-7 -11l-15 -3l-7 -7l-14 -6l-7 -7l-11 -7l-9 -7l-11 -7l-5 -13l-11 -9l-7 -8l-1 -3v-26l-1 -2l-7 -7l-5 -3l-18 -5l-18 4 l-8 8l-3 8l2 26l3 16l9 11l21 18l21 12l19 16l33 17l10 7l35 15l14 8h1h12l13 9z" />
<glyph unicode="&#xda;" horiz-adv-x="576" d="M342 859l16 2l20 -3l7 -6l2 -8l-1 -4l-2 -3l-17 -24l-7 -13l-11 -9l-9 -13l-29 -18l-8 -9l-6 -2l-9 -8l-5 -3l-2 -1l-9 1l-11 -1l-6 4l-9 -4l-3 3l-4 5l-1 4l1 5l2 3l13 9l10 15l11 8l7 10l10 8l4 9l7 9l8 22l7 10l8 6l4 1zM248 664l11 6l36 7l38 -4l10 -4l14 -15l10 -36 l1 -10l-12 -30l-18 -37l-25 -40l-7 -15l-15 -26l-3 -11l-16 -24l-6 -17l-8 -13l-12 -30l-13 -17l-19 -40l-14 -18l-2 -14l-11 -24l-5 -23l-6 -11l-8 -32l-15 -45l-1 -25l-2 -27l2 -9l2 -3l9 -4l14 8l12 8l26 26l10 6l9 14l17 -2v11l2 10l2 2l8 4l3 6l8 8l5 13l32 39l14 20 l13 1l-2 11v1v4l1 1l27 38l6 12l7 6l5 -6l4 -1l-4 9v2v3l2 5l12 21l4 8l9 17l17 18l8 24l8 8l9 7l-2 10l12 26l21 42l13 18l20 30l9 7l12 8l17 8l22 2l6 3l6 -2l10 -1l11 -9l7 -7l2 -9l-1 -8l-4 -10l-13 -22l-7 -10l-8 -7l-2 -12l-4 -6l-6 -14l-8 -10v-11l-16 -33l-9 -30 l-2 -4l-2 -1l-7 -1l6 -11l-13 -15l4 -14l-8 -14l-2 -11l-6 -12v-10l-8 -16l-6 -11l1 -10l-6 -6v-10l-5 -4v-12l-4 -8l-3 -25l-6 -16l4 -11l-2 -19l4 -12l19 7l4 9l9 4l3 10l10 3l7 3l3 2l12 14l30 22l5 8l11 11l13 15l4 1l6 -2l6 -7l2 -7l-9 -33l-4 -10l-9 -6l-7 -10 l-30 -21l-37 -30l-19 -5l-9 -8l-13 -6l-8 -6l-11 2l-6 -5l-13 6l-21 14l-2 3l-7 15l-7 12l1 20l-4 26l11 62l-1 17l12 31l4 27l1 10l-4 -10l-4 -8l-13 -5l2 -17l-1 -3l-9 -8l-9 -6l6 -3l-4 -9l-7 -10l-8 -8l-8 -8l-4 4l-4 -10l2 -4l-1 -5l-6 -9l-11 -18l-7 -2l-5 -9l-7 -4 l-1 -11l-23 -32l-15 -27l-7 -10l-6 -1l-5 -5l-5 -2l-3 -11l-10 -6l-8 -15l-35 -26l-8 -5h-1l-12 4l-3 -9l-3 -3l-12 2l-10 -2h-2l-12 4l-21 15l-14 13l-13 20l-13 12l-2 12l-10 15l-1 12l-3 18l2 10v11l9 36v10l11 34l5 20l3 5l2 2l12 2l1 5l-6 2v2l-1 1l1 3l5 12l3 15 l13 18l3 12l11 22l9 23l14 17l5 16l11 12l8 15l10 11l7 21l13 12l10 27l17 24l6 8l3 2l9 -1l1 2l-5 12l10 14l4 -3l6 -2l-3 14l6 29l1 2l-1 5l-4 4l-6 2l-11 -1l-6 5l-2 -6l-4 -4l-2 -1h-1l-10 3l-21 -11l-11 3l-7 -11l-15 -3l-7 -7l-14 -6l-7 -7l-11 -7l-9 -7l-11 -7 l-5 -13l-11 -9l-7 -8l-1 -3v-26l-1 -2l-7 -7l-5 -3l-18 -5l-18 4l-8 8l-3 8l2 26l3 16l9 11l21 18l21 12l19 16l33 17l10 7l35 15l14 8h1h12l13 9z" />
<glyph unicode="&#xdb;" horiz-adv-x="576" d="M155 755l9 6l19 17l9 5l14 14l12 8l30 31l15 9l11 13l9 5l11 2l14 -2l2 -1l7 -9l7 -7l6 -15l11 -16l3 -13l8 -14l5 -14l13 -24l-3 -9l-2 -2h-2h-13l-10 -2h-1l-7 2l-13 5l-7 8l-7 10l-11 11l-6 11l-9 11l-4 -9l-10 -4l-21 -16l-11 -5l-7 -9l-12 -7l-8 -6l-6 -2l-14 3 l-10 3l-10 -3l-5 -2l-5 2l-3 2v3v2zM248 664l11 6l36 7l38 -4l10 -4l14 -15l10 -36l1 -10l-12 -30l-18 -37l-25 -40l-7 -15l-15 -26l-3 -11l-16 -24l-6 -17l-8 -13l-12 -30l-13 -17l-19 -40l-14 -18l-2 -14l-11 -24l-5 -23l-6 -11l-8 -32l-15 -45l-1 -25l-2 -27l2 -9l2 -3 l9 -4l14 8l12 8l26 26l10 6l9 14l17 -2v11l2 10l2 2l8 4l3 6l8 8l5 13l32 39l14 20l13 1l-2 11v1v4l1 1l27 38l6 12l7 6l5 -6l4 -1l-4 9v2v3l2 5l12 21l4 8l9 17l17 18l8 24l8 8l9 7l-2 10l12 26l21 42l13 18l20 30l9 7l12 8l17 8l22 2l6 3l6 -2l10 -1l11 -9l7 -7l2 -9 l-1 -8l-4 -10l-13 -22l-7 -10l-8 -7l-2 -12l-4 -6l-6 -14l-8 -10v-11l-16 -33l-9 -30l-2 -4l-2 -1l-7 -1l6 -11l-13 -15l4 -14l-8 -14l-2 -11l-6 -12v-10l-8 -16l-6 -11l1 -10l-6 -6v-10l-5 -4v-12l-4 -8l-3 -25l-6 -16l4 -11l-2 -19l4 -12l19 7l4 9l9 4l3 10l10 3l7 3l3 2 l12 14l30 22l5 8l11 11l13 15l4 1l6 -2l6 -7l2 -7l-9 -33l-4 -10l-9 -6l-7 -10l-30 -21l-37 -30l-19 -5l-9 -8l-13 -6l-8 -6l-11 2l-6 -5l-13 6l-21 14l-2 3l-7 15l-7 12l1 20l-4 26l11 62l-1 17l12 31l4 27l1 10l-4 -10l-4 -8l-13 -5l2 -17l-1 -3l-9 -8l-9 -6l6 -3l-4 -9 l-7 -10l-8 -8l-8 -8l-4 4l-4 -10l2 -4l-1 -5l-6 -9l-11 -18l-7 -2l-5 -9l-7 -4l-1 -11l-23 -32l-15 -27l-7 -10l-6 -1l-5 -5l-5 -2l-3 -11l-10 -6l-8 -15l-35 -26l-8 -5h-1l-12 4l-3 -9l-3 -3l-12 2l-10 -2h-2l-12 4l-21 15l-14 13l-13 20l-13 12l-2 12l-10 15l-1 12l-3 18 l2 10v11l9 36v10l11 34l5 20l3 5l2 2l12 2l1 5l-6 2v2l-1 1l1 3l5 12l3 15l13 18l3 12l11 22l9 23l14 17l5 16l11 12l8 15l10 11l7 21l13 12l10 27l17 24l6 8l3 2l9 -1l1 2l-5 12l10 14l4 -3l6 -2l-3 14l6 29l1 2l-1 5l-4 4l-6 2l-11 -1l-6 5l-2 -6l-4 -4l-2 -1h-1l-10 3 l-21 -11l-11 3l-7 -11l-15 -3l-7 -7l-14 -6l-7 -7l-11 -7l-9 -7l-11 -7l-5 -13l-11 -9l-7 -8l-1 -3v-26l-1 -2l-7 -7l-5 -3l-18 -5l-18 4l-8 8l-3 8l2 26l3 16l9 11l21 18l21 12l19 16l33 17l10 7l35 15l14 8h1h12l13 9z" />
<glyph unicode="&#xdc;" horiz-adv-x="576" d="M227 767l-6 -15l-10 -6l-8 -6h-2h-2l-7 4l-16 9l-7 8l-7 12l-2 10l3 12l13 14l14 12l7 2l10 -3l5 -5l11 -16l11 -13l1 -5l-1 -6zM265 805l21 12l5 5l9 -2l13 -9l18 -23l2 -10l-1 -6l-1 -2l-12 -9l-4 -7l-12 -3l-4 -8l-10 -6l-16 5l-10 17l-8 6l-3 5l-2 8l1 3l6 12z M248 664l11 6l36 7l38 -4l10 -4l14 -15l10 -36l1 -10l-12 -30l-18 -37l-25 -40l-7 -15l-15 -26l-3 -11l-16 -24l-6 -17l-8 -13l-12 -30l-13 -17l-19 -40l-14 -18l-2 -14l-11 -24l-5 -23l-6 -11l-8 -32l-15 -45l-1 -25l-2 -27l2 -9l2 -3l9 -4l14 8l12 8l26 26l10 6l9 14 l17 -2v11l2 10l2 2l8 4l3 6l8 8l5 13l32 39l14 20l13 1l-2 11v1v4l1 1l27 38l6 12l7 6l5 -6l4 -1l-4 9v2v3l2 5l12 21l4 8l9 17l17 18l8 24l8 8l9 7l-2 10l12 26l21 42l13 18l20 30l9 7l12 8l17 8l22 2l6 3l6 -2l10 -1l11 -9l7 -7l2 -9l-1 -8l-4 -10l-13 -22l-7 -10l-8 -7 l-2 -12l-4 -6l-6 -14l-8 -10v-11l-16 -33l-9 -30l-2 -4l-2 -1l-7 -1l6 -11l-13 -15l4 -14l-8 -14l-2 -11l-6 -12v-10l-8 -16l-6 -11l1 -10l-6 -6v-10l-5 -4v-12l-4 -8l-3 -25l-6 -16l4 -11l-2 -19l4 -12l19 7l4 9l9 4l3 10l10 3l7 3l3 2l12 14l30 22l5 8l11 11l13 15l4 1 l6 -2l6 -7l2 -7l-9 -33l-4 -10l-9 -6l-7 -10l-30 -21l-37 -30l-19 -5l-9 -8l-13 -6l-8 -6l-11 2l-6 -5l-13 6l-21 14l-2 3l-7 15l-7 12l1 20l-4 26l11 62l-1 17l12 31l4 27l1 10l-4 -10l-4 -8l-13 -5l2 -17l-1 -3l-9 -8l-9 -6l6 -3l-4 -9l-7 -10l-8 -8l-8 -8l-4 4l-4 -10 l2 -4l-1 -5l-6 -9l-11 -18l-7 -2l-5 -9l-7 -4l-1 -11l-23 -32l-15 -27l-7 -10l-6 -1l-5 -5l-5 -2l-3 -11l-10 -6l-8 -15l-35 -26l-8 -5h-1l-12 4l-3 -9l-3 -3l-12 2l-10 -2h-2l-12 4l-21 15l-14 13l-13 20l-13 12l-2 12l-10 15l-1 12l-3 18l2 10v11l9 36v10l11 34l5 20l3 5 l2 2l12 2l1 5l-6 2v2l-1 1l1 3l5 12l3 15l13 18l3 12l11 22l9 23l14 17l5 16l11 12l8 15l10 11l7 21l13 12l10 27l17 24l6 8l3 2l9 -1l1 2l-5 12l10 14l4 -3l6 -2l-3 14l6 29l1 2l-1 5l-4 4l-6 2l-11 -1l-6 5l-2 -6l-4 -4l-2 -1h-1l-10 3l-21 -11l-11 3l-7 -11l-15 -3l-7 -7 l-14 -6l-7 -7l-11 -7l-9 -7l-11 -7l-5 -13l-11 -9l-7 -8l-1 -3v-26l-1 -2l-7 -7l-5 -3l-18 -5l-18 4l-8 8l-3 8l2 26l3 16l9 11l21 18l21 12l19 16l33 17l10 7l35 15l14 8h1h12l13 9z" />
<glyph unicode="&#xdd;" horiz-adv-x="505" d="M365 852l16 2l20 -3l7 -6l2 -8l-1 -4l-2 -3l-17 -24l-7 -13l-11 -9l-9 -13l-29 -18l-8 -9l-6 -2l-9 -8l-5 -3l-2 -1l-9 1l-11 -1l-6 4l-9 -4l-3 3l-4 5l-1 4l1 5l2 3l13 9l10 15l11 8l7 10l10 8l4 9l7 9l8 22l7 10l8 6l4 1zM274 449l-3 -11l-14 -23l-4 -11l-10 -24 l-9 -12l-12 -27l-10 -7l-3 -15l-6 -10l-3 -8l-6 -9l-2 -9l-12 -30l-3 -13l-6 -10l-8 -35l-5 -10v-15l-7 -4l3 -15l-4 -15l2 -12l-1 -13l10 -29l2 -3l4 -2l8 7l8 3l7 7l10 2l9 13l9 -1l7 10l7 6l20 27l13 7l27 35l14 12l6 12l39 52l4 11l16 25l18 29l10 11l2 10l2 6l9 10 l15 24l14 30l17 24l12 34l8 10l3 13l10 4l2 10l3 12l5 5l10 5l4 10l5 8l9 6l13 3l15 -4l25 -26l12 -34l-1 -7l-1 -2l-2 -2l-11 -6l-6 -4l-11 -17l-19 -42l-20 -58l-7 -8l-10 -32l-6 -9v-18l-4 -15l-14 -25l-3 -9l-5 -4v-12l-6 -5l-2 -13l-3 -11l13 6l8 11l18 9l7 6l8 6l6 8 l17 8l11 12l18 12l21 16l13 3l7 1l4 -1l3 -3l1 -6v-2l-1 -2l-11 -13l-8 -22l-4 -6l-2 -2l-9 -4l-12 -8l-23 -11l-12 -14l-7 -4l-8 -7l-8 -5l-9 -6h-6l-18 -19l-36 -31l-8 -17l-9 -16l-1 -22l-2 -9l-13 -10v-23l-2 -7l-16 -29v-17l-10 -20l-8 -28l-5 -7l-13 -36l-7 -10l-4 -8 l-14 -3l4 -11l1 -6l-1 -8l-9 -16l-8 -23l-10 -18l-7 -6l-18 -40l-14 -19l-12 -10l-12 2l-5 -16h-15l-11 -13l-10 -2l-11 -3l-17 25l-12 9l-5 10l-10 24l-1 21l-2 9l1 9l-2 9l4 20l7 8l-4 14l9 27l4 12h6l4 12l8 5l-1 13l9 11l7 14l6 5l3 10l6 7l7 9h8l3 2l-3 10l16 17l7 6 l10 13l15 -3l3 1l-4 14l5 6l4 14l4 2l8 -5l7 3l-4 8l1 5l15 11l6 2l5 9l2 10l11 3l12 12l9 9l6 18l5 14l10 6l-6 10l8 8v11l10 30l3 19l9 15l1 13l3 10l5 11l-7 -5l-4 -7l-10 -9l-26 -39l-9 -5l-1 -2l-5 -12l-4 -10l-13 -8l-3 -18l-11 -1l-4 -15l-10 -2l-6 -11l-9 -14l-3 -3 l-11 -6l-4 -6l-9 -6l-1 -12l-11 -5l-3 -2l-4 -16l-3 -7h-11l-8 -8l-12 -11l-14 -1l-5 -9l-11 2l-13 -2h-1l-7 2l-23 14l-15 14l-11 13l-2 6l-12 13l-3 9l-9 14l-1 14l-3 10l2 15l-1 10l8 33l-1 11l11 34l5 21l3 3l4 2l7 1l2 2l-5 4l-1 3l1 4l5 12l2 13l12 17l4 14l10 18 l8 23l10 12l8 20l10 12l7 13l10 12l6 16l13 15l11 29l8 11l13 17l10 1l-3 13l7 12l8 -2h4l-3 11l5 29l1 2l-2 5l-3 3l-4 2l-10 -2l-6 5l-4 -7l-7 -4l-6 3l-5 -2l-15 -8l-12 2l-6 -10l-16 -4l-5 -6l-14 -7l-26 -19l-10 -6l-2 -10l-20 -22l-1 -26l-3 -4l-14 -10l-13 -3l-18 5 l-7 6l-2 5v1l3 14l-1 12l2 8l7 8l21 19l8 5l9 6l13 5l12 12l103 47l9 7l13 3l8 4l6 1l11 6l22 3l27 1l11 -4l14 -14l7 -31l-3 -18l-2 -6l-18 -26l-11 -23l-20 -27l-4 -9l-10 -17l-7 -26zM201 -221l5 -19l-3 -6l6 -11l7 8l5 7l17 29l6 5l1 18l7 6l5 6l4 13l1 10l12 16v12l1 5 l14 26l7 13h8l-1 4l-5 2l-2 3l-1 3l1 2l9 10v9l3 7l1 9l5 8l4 18l6 4v8l7 17l5 22l3 10l-12 -12l-6 -9l-25 -27l-5 -8l-12 -17l-13 -21l-13 -20l-8 -18l-20 -40l-6 -17l-3 -21l-12 -12l5 -5l2 -5l-1 -4l-5 -9v-14z" />
<glyph unicode="&#xdf;" horiz-adv-x="345" d="M69 311l2 10l11 17l3 8l23 30l13 25l14 15l2 9l18 23l3 13l10 18l10 14l9 14l11 10l7 15l20 20l3 9l12 8l12 14l6 5l26 19l17 8l16 3l19 -5l25 -27l6 -13v-2l-4 -17l-1 -14l-10 -14l-2 -16l-13 -12l-10 -21l-12 -9l-5 -11l-8 -8l-8 -12l13 -1l31 -14l10 -9l9 -16l13 -19 l8 -36v-9l-3 -29l-2 -4l-8 -10l-2 -33l-21 -28l-3 -16l-3 -3l-3 -2l-9 -3l-2 -10l-4 -10l-26 -28l-26 -33l-32 -15l-14 -15l-12 -5l-11 -9l-11 -1l-12 -15l-3 -2h-4h-3l-12 3l-14 -9l-14 -3l-14 -5l-10 2l-6 -4l-10 -5l-10 1l-25 7l-24 33l-6 20l3 12l8 8l12 3l8 -1l9 -4 l12 -10l11 3l23 6l28 10l25 16l57 43l10 6l27 32l15 14l8 7l2 11l5 8l7 11l4 1l3 10l21 44l3 13l2 18l-3 10l-4 5l-16 4l-11 2l-8 -7l-10 1l-6 -3l-11 -2l-46 -32l-6 -1l-12 4l-8 8l-2 7v5l15 23l6 11l64 57l34 45l7 10l3 12l3 17l-2 9l-4 4l-5 1h-3l-9 -8l-38 -26l-2 -2 l-5 -9l-5 -11l-20 -10l1 -14l-1 -4l-4 -4l-10 -5l-1 -12l-3 -9l-16 -7l1 -15l-22 -36l-8 -20l-6 -7l-14 -26l-14 -19l-7 -7l-13 -19l-11 -13l-5 -13l-10 -8l-8 -13l-7 -7l-13 -17l-26 -26l-23 -25l-5 -1l-4 1l-5 5l-5 18l-2 12l3 10l3 6l16 16l18 21l11 8l12 23l10 11l10 14 z" />
<glyph unicode="&#xe0;" horiz-adv-x="411" d="M9 130h5l-2 11l4 9l21 30l2 7l13 12l8 12l17 13l18 19l32 21l29 20l17 7l17 10l23 7l17 7l10 -5l9 5h3l11 -3l16 -13l4 -11l2 -13l5 -11l8 7l10 15l12 10l20 5l12 -3l8 -7l3 -16l-4 -23l-13 -26l-12 -17l-11 -32l-5 -8v-16l-1 -16l1 -6l2 -2l3 -1l3 1l7 4l16 16l10 6 l17 17l5 1l8 13l16 10l11 13l8 7l4 1l4 -1l5 -6l3 -11l-3 -13l-8 -16l-4 -17l-7 -6l-21 -22l-9 -3l-11 -16l-12 -4l-6 -6l-10 -3l-5 -9l-15 -6l-25 -8l-11 2l-9 5l-9 2l-6 13l-7 11v5v2l2 11l-5 5l1 11l-1 13v1l1 7l2 11l-2 3l-10 -8l-11 -3l-6 -15l-9 -6l-4 -5l-10 -5 l-9 -7l-8 -1l-5 -9l-5 -6l-36 -27l-12 -12l-15 -9l-41 -24l-18 -3l-28 7l-16 12l-3 5l-4 16l-6 15v12l1 9v15zM207 173l21 15l4 9l8 6l17 17l9 9l8 12l-10 -3h-7h-8l-30 5l-2 -1l-11 -5l-21 -6l-30 -17l-10 -4l-8 -8l-28 -21l-5 -10l-12 -12l-4 -9l-13 -7l-4 -15l-9 -13 l-1 -6v-4l1 -13l2 -4l2 -1l5 -1l21 7l49 27l6 8l45 27l8 8l5 3zM269 399l9 -11l1 -4l-1 -5l-3 -2l-15 -3l-11 1h-14l-9 10l-12 12v10l-9 14l-4 8l-3 5v13l-12 25v2l2 10l10 10l16 4l5 -1l11 -3h16l5 -4l3 -8l7 -41l8 -27l-2 -11z" />
<glyph unicode="&#xe1;" horiz-adv-x="411" d="M9 130h5l-2 11l4 9l21 30l2 7l13 12l8 12l17 13l18 19l32 21l29 20l17 7l17 10l23 7l17 7l10 -5l9 5h3l11 -3l16 -13l4 -11l2 -13l5 -11l8 7l10 15l12 10l20 5l12 -3l8 -7l3 -16l-4 -23l-13 -26l-12 -17l-11 -32l-5 -8v-16l-1 -16l1 -6l2 -2l3 -1l3 1l7 4l16 16l10 6 l17 17l5 1l8 13l16 10l11 13l8 7l4 1l4 -1l5 -6l3 -11l-3 -13l-8 -16l-4 -17l-7 -6l-21 -22l-9 -3l-11 -16l-12 -4l-6 -6l-10 -3l-5 -9l-15 -6l-25 -8l-11 2l-9 5l-9 2l-6 13l-7 11v5v2l2 11l-5 5l1 11l-1 13v1l1 7l2 11l-2 3l-10 -8l-11 -3l-6 -15l-9 -6l-4 -5l-10 -5 l-9 -7l-8 -1l-5 -9l-5 -6l-36 -27l-12 -12l-15 -9l-41 -24l-18 -3l-28 7l-16 12l-3 5l-4 16l-6 15v12l1 9v15zM207 173l21 15l4 9l8 6l17 17l9 9l8 12l-10 -3h-7h-8l-30 5l-2 -1l-11 -5l-21 -6l-30 -17l-10 -4l-8 -8l-28 -21l-5 -10l-12 -12l-4 -9l-13 -7l-4 -15l-9 -13 l-1 -6v-4l1 -13l2 -4l2 -1l5 -1l21 7l49 27l6 8l45 27l8 8l5 3zM310 495l16 2l20 -3l7 -6l2 -8l-1 -4l-2 -3l-17 -24l-7 -13l-11 -9l-9 -13l-29 -18l-8 -9l-6 -2l-9 -8l-5 -3l-2 -1l-9 1l-11 -1l-6 4l-9 -4l-3 3l-4 5l-1 4l1 5l2 3l13 9l10 15l11 8l7 10l10 8l4 9l7 9l8 22 l7 10l8 6l4 1z" />
<glyph unicode="&#xe2;" horiz-adv-x="411" d="M9 130h5l-2 11l4 9l21 30l2 7l13 12l8 12l17 13l18 19l32 21l29 20l17 7l17 10l23 7l17 7l10 -5l9 5h3l11 -3l16 -13l4 -11l2 -13l5 -11l8 7l10 15l12 10l20 5l12 -3l8 -7l3 -16l-4 -23l-13 -26l-12 -17l-11 -32l-5 -8v-16l-1 -16l1 -6l2 -2l3 -1l3 1l7 4l16 16l10 6 l17 17l5 1l8 13l16 10l11 13l8 7l4 1l4 -1l5 -6l3 -11l-3 -13l-8 -16l-4 -17l-7 -6l-21 -22l-9 -3l-11 -16l-12 -4l-6 -6l-10 -3l-5 -9l-15 -6l-25 -8l-11 2l-9 5l-9 2l-6 13l-7 11v5v2l2 11l-5 5l1 11l-1 13v1l1 7l2 11l-2 3l-10 -8l-11 -3l-6 -15l-9 -6l-4 -5l-10 -5 l-9 -7l-8 -1l-5 -9l-5 -6l-36 -27l-12 -12l-15 -9l-41 -24l-18 -3l-28 7l-16 12l-3 5l-4 16l-6 15v12l1 9v15zM207 173l21 15l4 9l8 6l17 17l9 9l8 12l-10 -3h-7h-8l-30 5l-2 -1l-11 -5l-21 -6l-30 -17l-10 -4l-8 -8l-28 -21l-5 -10l-12 -12l-4 -9l-13 -7l-4 -15l-9 -13 l-1 -6v-4l1 -13l2 -4l2 -1l5 -1l21 7l49 27l6 8l45 27l8 8l5 3zM155 391l9 6l19 17l9 5l14 14l12 8l30 31l15 9l11 13l9 5l11 2l14 -2l2 -1l7 -9l7 -7l6 -15l11 -16l3 -13l8 -14l5 -14l13 -24l-3 -9l-2 -2h-2h-13l-10 -2h-1l-7 2l-13 5l-7 8l-7 10l-11 11l-6 11l-9 11l-4 -9 l-10 -4l-21 -16l-11 -5l-7 -9l-12 -7l-8 -6l-6 -2l-14 3l-10 3l-10 -3l-5 -2l-5 2l-3 2v3v2z" />
<glyph unicode="&#xe3;" horiz-adv-x="411" d="M9 130h5l-2 11l4 9l21 30l2 7l13 12l8 12l17 13l18 19l32 21l29 20l17 7l17 10l23 7l17 7l10 -5l9 5h3l11 -3l16 -13l4 -11l2 -13l5 -11l8 7l10 15l12 10l20 5l12 -3l8 -7l3 -16l-4 -23l-13 -26l-12 -17l-11 -32l-5 -8v-16l-1 -16l1 -6l2 -2l3 -1l3 1l7 4l16 16l10 6 l17 17l5 1l8 13l16 10l11 13l8 7l4 1l4 -1l5 -6l3 -11l-3 -13l-8 -16l-4 -17l-7 -6l-21 -22l-9 -3l-11 -16l-12 -4l-6 -6l-10 -3l-5 -9l-15 -6l-25 -8l-11 2l-9 5l-9 2l-6 13l-7 11v5v2l2 11l-5 5l1 11l-1 13v1l1 7l2 11l-2 3l-10 -8l-11 -3l-6 -15l-9 -6l-4 -5l-10 -5 l-9 -7l-8 -1l-5 -9l-5 -6l-36 -27l-12 -12l-15 -9l-41 -24l-18 -3l-28 7l-16 12l-3 5l-4 16l-6 15v12l1 9v15zM207 173l21 15l4 9l8 6l17 17l9 9l8 12l-10 -3h-7h-8l-30 5l-2 -1l-11 -5l-21 -6l-30 -17l-10 -4l-8 -8l-28 -21l-5 -10l-12 -12l-4 -9l-13 -7l-4 -15l-9 -13 l-1 -6v-4l1 -13l2 -4l2 -1l5 -1l21 7l49 27l6 8l45 27l8 8l5 3zM226 482l4 6l6 3l9 6l7 1l9 -2l14 -14l8 -11l2 -12l8 -14l4 -9h3l6 8l11 9l3 6l24 16l12 14l13 7l8 7l12 -3l4 -5l-3 -13l2 -10l-3 -7l-5 -13l-6 -8l-12 -13l-9 -6l-10 -12l-10 -4l-4 -3l-11 -13l-6 -10 l-12 -1l-8 -8l-10 -1l-10 -1h-1l-5 1l-2 2l-2 2l-7 12l-6 4l-4 5l-4 18l-2 9l-3 4l-3 -1l-3 -6l-7 -4l-4 -3l-1 -1l-5 -8l-14 -9l-5 -9l-7 -5l-6 -11l-9 -5l-5 -4h-2h-2l-2 1l-1 2l-4 14l-7 18v3v5l2 2l10 9l4 9l13 10l11 17l13 9l6 12z" />
<glyph unicode="&#xe4;" horiz-adv-x="411" d="M9 130h5l-2 11l4 9l21 30l2 7l13 12l8 12l17 13l18 19l32 21l29 20l17 7l17 10l23 7l17 7l10 -5l9 5h3l11 -3l16 -13l4 -11l2 -13l5 -11l8 7l10 15l12 10l20 5l12 -3l8 -7l3 -16l-4 -23l-13 -26l-12 -17l-11 -32l-5 -8v-16l-1 -16l1 -6l2 -2l3 -1l3 1l7 4l16 16l10 6 l17 17l5 1l8 13l16 10l11 13l8 7l4 1l4 -1l5 -6l3 -11l-3 -13l-8 -16l-4 -17l-7 -6l-21 -22l-9 -3l-11 -16l-12 -4l-6 -6l-10 -3l-5 -9l-15 -6l-25 -8l-11 2l-9 5l-9 2l-6 13l-7 11v5v2l2 11l-5 5l1 11l-1 13v1l1 7l2 11l-2 3l-10 -8l-11 -3l-6 -15l-9 -6l-4 -5l-10 -5 l-9 -7l-8 -1l-5 -9l-5 -6l-36 -27l-12 -12l-15 -9l-41 -24l-18 -3l-28 7l-16 12l-3 5l-4 16l-6 15v12l1 9v15zM207 173l21 15l4 9l8 6l17 17l9 9l8 12l-10 -3h-7h-8l-30 5l-2 -1l-11 -5l-21 -6l-30 -17l-10 -4l-8 -8l-28 -21l-5 -10l-12 -12l-4 -9l-13 -7l-4 -15l-9 -13 l-1 -6v-4l1 -13l2 -4l2 -1l5 -1l21 7l49 27l6 8l45 27l8 8l5 3zM227 421l-6 -15l-10 -6l-8 -6h-2h-2l-7 4l-16 9l-7 8l-7 12l-2 10l3 12l13 14l14 12l7 2l10 -3l5 -5l11 -16l11 -13l1 -5l-1 -6zM265 459l21 12l5 5l9 -2l13 -9l18 -23l2 -10l-1 -6l-1 -2l-12 -9l-4 -7l-12 -3 l-4 -8l-10 -6l-16 5l-10 17l-8 6l-3 5l-2 8l1 3l6 12z" />
<glyph unicode="&#xe5;" horiz-adv-x="411" d="M9 130h5l-2 11l4 9l21 30l2 7l13 12l8 12l17 13l18 19l32 21l29 20l17 7l17 10l23 7l17 7l10 -5l9 5h3l11 -3l16 -13l4 -11l2 -13l5 -11l8 7l10 15l12 10l20 5l12 -3l8 -7l3 -16l-4 -23l-13 -26l-12 -17l-11 -32l-5 -8v-16l-1 -16l1 -6l2 -2l3 -1l3 1l7 4l16 16l10 6 l17 17l5 1l8 13l16 10l11 13l8 7l4 1l4 -1l5 -6l3 -11l-3 -13l-8 -16l-4 -17l-7 -6l-21 -22l-9 -3l-11 -16l-12 -4l-6 -6l-10 -3l-5 -9l-15 -6l-25 -8l-11 2l-9 5l-9 2l-6 13l-7 11v5v2l2 11l-5 5l1 11l-1 13v1l1 7l2 11l-2 3l-10 -8l-11 -3l-6 -15l-9 -6l-4 -5l-10 -5 l-9 -7l-8 -1l-5 -9l-5 -6l-36 -27l-12 -12l-15 -9l-41 -24l-18 -3l-28 7l-16 12l-3 5l-4 16l-6 15v12l1 9v15zM207 173l21 15l4 9l8 6l17 17l9 9l8 12l-10 -3h-7h-8l-30 5l-2 -1l-11 -5l-21 -6l-30 -17l-10 -4l-8 -8l-28 -21l-5 -10l-12 -12l-4 -9l-13 -7l-4 -15l-9 -13 l-1 -6v-4l1 -13l2 -4l2 -1l5 -1l21 7l49 27l6 8l45 27l8 8l5 3zM308 488l5 -11l8 -27v-3l-5 -14l-15 -32l-3 -5l-17 -15l-30 -10l-5 1l-17 7l-10 3l-11 6l-6 7l-2 20l1 21l14 34l7 10l7 6l10 6l5 3l14 2l21 2h1l18 -6zM235 422l12 -13l2 -1l8 3l17 18l7 24l-2 8l-4 4l-7 2 l-6 -2l-5 -4l-5 -9l-8 -11l-4 -9z" />
<glyph unicode="&#xe6;" horiz-adv-x="506" d="M-8 136l2 15l22 31l5 11l9 8l12 17l12 9l16 17l22 16l12 6l27 19l23 9l12 8l18 5l20 11l13 -5l17 6l2 -1l18 -16l3 -5l7 -21l6 -9l4 6l11 7l16 14l18 10l11 2l16 10l22 1l11 4h16h17l22 -6l10 -2l8 -7l6 -9l2 -11l-3 -13l-8 -14l-10 -9l-20 -11l-26 -19l-9 -1l-4 -2 l-4 -2l-9 -13l-7 1l-6 -5l-9 -13l-8 -2l-20 -15l-10 -3l-3 -11l-2 -2l-8 -3l-10 -3l-10 -9l-13 -3l-2 -10l-4 -18l1 -5l4 -4l9 -3l14 1l25 1l30 12l15 -1l6 10l10 5l14 4l6 9l6 5l15 4l6 9l5 4l3 2l8 1l9 9l16 6l6 7l9 5l5 7l9 5l5 -8l2 15l5 7l6 3h7l9 8l3 10l17 8l6 -5 l-2 -10l1 -19l-10 -16l-3 -15l-8 -5l-9 -9l-11 -3l-13 -17l-9 -9l-9 -10l-4 4l-7 -1l-8 -14l-10 -5l-10 -9l-9 -1l-16 -17l-18 -3l-24 -17l-13 -3l-32 -12l-10 -1l-4 1l-10 5l-33 -3l-10 6l-18 9l-6 12h-7l-5 10l-11 20l-7 24l-3 10l-10 -5l-10 -8h-8l-9 -16l-30 -21 l-25 -21l-33 -20l-15 -8l-16 -2l-30 7l-14 8l-2 5l-6 18l-6 14l1 16l-1 16v2v6l1 2zM248 242h-10h-11l-29 4l-15 -7l-17 -3l-11 -7l-11 -4l-7 -6l-7 -7h-7l-7 -8l-11 -9l-15 -9l-9 -13l-9 -8l-5 -11l-14 -9l-4 -16l-10 -17l-1 -6l2 -8l6 -6l6 -2l10 3l46 26l12 6l6 8l44 26 l14 18l21 15l4 9l10 7l11 12l15 14zM287 197l41 20l24 19l22 16l10 9l16 12l-11 8l-10 -4l-10 -2l-9 -5l-24 -10l-11 -8l-20 -17l-3 -3l-11 -23z" />
<glyph unicode="&#xe7;" horiz-adv-x="316" d="M-37 -99l7 14l11 9l6 6h1l25 2l14 4l7 7l4 5l7 13l-1 13l-12 5l-9 7l-2 4l-1 4l1 4l2 4l24 26l4 8l-11 9l-11 5l-9 5l-5 13l-9 5l-7 7l-3 6l-5 20l-3 10l-1 3l1 5l9 23l5 20l4 8l10 5l2 12l4 12l2 3l9 9l7 8l7 4l3 12l5 5l10 12l8 3l9 9l12 8l8 8l9 4l16 14l8 4l7 2h12 l15 9h1l6 -1l10 -3l10 8l5 1h2l22 -7l13 5l8 -4l10 -4l9 -17l4 -18l-2 -9l-6 -8l-19 -11l-11 -2l-7 5l-16 5l-11 3h-2l-11 -3l-11 -4l-3 7l-8 -8l-9 -6l-3 -1l-5 1l-7 -8l-12 -6l-11 -11l-17 -8l-4 -3l-2 -2l-4 -10l-8 -10l-14 -23l-14 -10l-1 -20l-8 -7l1 -11l-5 -21v-1 l1 -3l7 -7l13 -3l8 1l7 2l19 1l24 7l14 5l2 5l13 9h11l7 8l27 12l12 12l14 2l18 13l12 5l21 20l10 4l10 8l11 1l6 11l4 4l8 5l15 10h2l6 -1l4 -4l1 -4v-3l-2 -3l-7 -2l5 -15l-3 -8l-4 -8l-11 -7l-1 -10l-8 -3l-30 -25l-9 -8l-3 4l-7 1l-4 -9l-10 -9l-32 -21h-9l-5 -9 l-14 -11l-9 -8l-10 1l-8 -6l-9 -2l-16 -14l-11 8l-5 -5l-4 -9l-12 -6l-10 -11l-12 -15l-3 -12l10 -4l7 -8l3 -11l-3 -21l-4 -11l-2 -5l-8 -8l-2 -10l-10 -4l-12 -8l-17 -6l-10 -7h-7h-12l-13 -7l-24 9l-12 1z" />
<glyph unicode="&#xe8;" horiz-adv-x="291" d="M76 278l21 18l25 10l15 9l7 -1h3l13 3l9 3l20 1l11 1l8 -3l21 -4l11 -5l10 -12l2 -9l-3 -13l-11 -18l-18 -15l-10 -3l-7 -9l-8 -4l-10 -8l-13 -1l-2 -1l-4 -5l-7 -11h-9l-9 -6l-2 -7l-11 -5l-13 -11l-8 -6l-10 1l-3 -6l-1 -10l-7 -2l-6 -5l-6 2l-10 -10l-13 -1l-2 -11 l-5 -18l3 -9l3 -3l4 -1l29 1h15l23 10l11 1h11l9 11l10 5l11 2l5 9l4 3l4 3l15 4l9 11l15 6l9 9l14 4l9 11l13 9l6 4h4l3 -7l1 14l13 11l12 5l6 13l9 5l7 4h1l3 -1l2 -2l1 -2v-1l-3 -13l2 -15l-9 -13l-5 -19l-7 -3l-11 -10l-8 -3l-15 -18l-11 -12l-8 -6l-4 5l-6 -2l-2 -8 l-2 -4l-2 -2l-14 -8l-7 -6l-12 -1l-10 -14l-20 -7l-29 -16l-8 -2l-35 -13l-11 -2l-6 1l-9 6l-11 -3l-16 -2l-6 2l-8 5l-18 9l-6 15l-9 -1l-11 36l-13 5l-2 4l-1 7l3 15l5 10l11 11l7 26l4 4l3 11l6 8l8 14l4 10l4 5l8 5l10 6l2 5l2 10v2l4 3zM77 195l4 -1l9 6l18 7l21 18 l8 4l12 10l7 5l3 6l8 2l7 9l6 5l12 8l-3 5l-5 2l-12 -4l-14 -2l-9 -5l-18 -7l-12 -9l-18 -13l-5 -4l-2 -3l-6 -15l-8 -13zM196 399l9 -11l1 -4l-1 -5l-3 -2l-15 -3l-11 1h-14l-9 10l-12 12v10l-9 14l-4 8l-3 5v13l-12 25v2l2 10l10 10l16 4l5 -1l11 -3h16l5 -4l3 -8l7 -41 l8 -27l-2 -11z" />
<glyph unicode="&#xe9;" horiz-adv-x="291" d="M76 278l21 18l25 10l15 9l7 -1h3l13 3l9 3l20 1l11 1l8 -3l21 -4l11 -5l10 -12l2 -9l-3 -13l-11 -18l-18 -15l-10 -3l-7 -9l-8 -4l-10 -8l-13 -1l-2 -1l-4 -5l-7 -11h-9l-9 -6l-2 -7l-11 -5l-13 -11l-8 -6l-10 1l-3 -6l-1 -10l-7 -2l-6 -5l-6 2l-10 -10l-13 -1l-2 -11 l-5 -18l3 -9l3 -3l4 -1l29 1h15l23 10l11 1h11l9 11l10 5l11 2l5 9l4 3l4 3l15 4l9 11l15 6l9 9l14 4l9 11l13 9l6 4h4l3 -7l1 14l13 11l12 5l6 13l9 5l7 4h1l3 -1l2 -2l1 -2v-1l-3 -13l2 -15l-9 -13l-5 -19l-7 -3l-11 -10l-8 -3l-15 -18l-11 -12l-8 -6l-4 5l-6 -2l-2 -8 l-2 -4l-2 -2l-14 -8l-7 -6l-12 -1l-10 -14l-20 -7l-29 -16l-8 -2l-35 -13l-11 -2l-6 1l-9 6l-11 -3l-16 -2l-6 2l-8 5l-18 9l-6 15l-9 -1l-11 36l-13 5l-2 4l-1 7l3 15l5 10l11 11l7 26l4 4l3 11l6 8l8 14l4 10l4 5l8 5l10 6l2 5l2 10v2l4 3zM77 195l4 -1l9 6l18 7l21 18 l8 4l12 10l7 5l3 6l8 2l7 9l6 5l12 8l-3 5l-5 2l-12 -4l-14 -2l-9 -5l-18 -7l-12 -9l-18 -13l-5 -4l-2 -3l-6 -15l-8 -13zM264 495l16 2l20 -3l7 -6l2 -8l-1 -4l-2 -3l-17 -24l-7 -13l-11 -9l-9 -13l-29 -18l-8 -9l-6 -2l-9 -8l-5 -3l-2 -1l-9 1l-11 -1l-6 4l-9 -4l-3 3 l-4 5l-1 4l1 5l2 3l13 9l10 15l11 8l7 10l10 8l4 9l7 9l8 22l7 10l8 6l4 1z" />
<glyph unicode="&#xea;" horiz-adv-x="291" d="M76 278l21 18l25 10l15 9l7 -1h3l13 3l9 3l20 1l11 1l8 -3l21 -4l11 -5l10 -12l2 -9l-3 -13l-11 -18l-18 -15l-10 -3l-7 -9l-8 -4l-10 -8l-13 -1l-2 -1l-4 -5l-7 -11h-9l-9 -6l-2 -7l-11 -5l-13 -11l-8 -6l-10 1l-3 -6l-1 -10l-7 -2l-6 -5l-6 2l-10 -10l-13 -1l-2 -11 l-5 -18l3 -9l3 -3l4 -1l29 1h15l23 10l11 1h11l9 11l10 5l11 2l5 9l4 3l4 3l15 4l9 11l15 6l9 9l14 4l9 11l13 9l6 4h4l3 -7l1 14l13 11l12 5l6 13l9 5l7 4h1l3 -1l2 -2l1 -2v-1l-3 -13l2 -15l-9 -13l-5 -19l-7 -3l-11 -10l-8 -3l-15 -18l-11 -12l-8 -6l-4 5l-6 -2l-2 -8 l-2 -4l-2 -2l-14 -8l-7 -6l-12 -1l-10 -14l-20 -7l-29 -16l-8 -2l-35 -13l-11 -2l-6 1l-9 6l-11 -3l-16 -2l-6 2l-8 5l-18 9l-6 15l-9 -1l-11 36l-13 5l-2 4l-1 7l3 15l5 10l11 11l7 26l4 4l3 11l6 8l8 14l4 10l4 5l8 5l10 6l2 5l2 10v2l4 3zM77 195l4 -1l9 6l18 7l21 18 l8 4l12 10l7 5l3 6l8 2l7 9l6 5l12 8l-3 5l-5 2l-12 -4l-14 -2l-9 -5l-18 -7l-12 -9l-18 -13l-5 -4l-2 -3l-6 -15l-8 -13zM82 391l9 6l19 17l9 5l14 14l12 8l30 31l15 9l11 13l9 5l11 2l14 -2l2 -1l7 -9l7 -7l6 -15l11 -16l3 -13l8 -14l5 -14l13 -24l-3 -9l-2 -2h-2h-13 l-10 -2h-1l-7 2l-13 5l-7 8l-7 10l-11 11l-6 11l-9 11l-4 -9l-10 -4l-21 -16l-11 -5l-7 -9l-12 -7l-8 -6l-6 -2l-14 3l-10 3l-10 -3l-5 -2l-5 2l-3 2v3v2z" />
<glyph unicode="&#xeb;" horiz-adv-x="291" d="M76 278l21 18l25 10l15 9l7 -1h3l13 3l9 3l20 1l11 1l8 -3l21 -4l11 -5l10 -12l2 -9l-3 -13l-11 -18l-18 -15l-10 -3l-7 -9l-8 -4l-10 -8l-13 -1l-2 -1l-4 -5l-7 -11h-9l-9 -6l-2 -7l-11 -5l-13 -11l-8 -6l-10 1l-3 -6l-1 -10l-7 -2l-6 -5l-6 2l-10 -10l-13 -1l-2 -11 l-5 -18l3 -9l3 -3l4 -1l29 1h15l23 10l11 1h11l9 11l10 5l11 2l5 9l4 3l4 3l15 4l9 11l15 6l9 9l14 4l9 11l13 9l6 4h4l3 -7l1 14l13 11l12 5l6 13l9 5l7 4h1l3 -1l2 -2l1 -2v-1l-3 -13l2 -15l-9 -13l-5 -19l-7 -3l-11 -10l-8 -3l-15 -18l-11 -12l-8 -6l-4 5l-6 -2l-2 -8 l-2 -4l-2 -2l-14 -8l-7 -6l-12 -1l-10 -14l-20 -7l-29 -16l-8 -2l-35 -13l-11 -2l-6 1l-9 6l-11 -3l-16 -2l-6 2l-8 5l-18 9l-6 15l-9 -1l-11 36l-13 5l-2 4l-1 7l3 15l5 10l11 11l7 26l4 4l3 11l6 8l8 14l4 10l4 5l8 5l10 6l2 5l2 10v2l4 3zM77 195l4 -1l9 6l18 7l21 18 l8 4l12 10l7 5l3 6l8 2l7 9l6 5l12 8l-3 5l-5 2l-12 -4l-14 -2l-9 -5l-18 -7l-12 -9l-18 -13l-5 -4l-2 -3l-6 -15l-8 -13zM167 421l-6 -15l-10 -6l-8 -6h-2h-2l-7 4l-16 9l-7 8l-7 12l-2 10l3 12l13 14l14 12l7 2l10 -3l5 -5l11 -16l11 -13l1 -5l-1 -6zM205 459l21 12l5 5 l9 -2l13 -9l18 -23l2 -10l-1 -6l-1 -2l-12 -9l-4 -7l-12 -3l-4 -8l-10 -6l-16 5l-10 17l-8 6l-3 5l-2 8l1 3l6 12z" />
<glyph unicode="&#xec;" d="M6 216h6l13 9l11 15l22 13l14 13l15 1l6 9l11 6l10 10l17 11l15 8l5 1l14 -4l17 -14l10 -12l4 -16l-4 -22l-10 -28l-7 -23l-6 -6l-5 -10l-5 -6l2 -14l-6 -9v-22l-6 -7l2 -3l8 2h14l6 8l11 5l6 6l24 11l75 57l8 -2l3 -3l1 -5l-4 -13l-7 -14l-7 -16l-8 -9l-6 -9l-8 -5 l-11 -9l-12 -9l-25 -23l-14 -7l-5 -8l-13 -3l-7 -7l-7 -5l-9 -3l-11 -1l-10 -9h-12l-8 -2h-1l-12 5l-6 4l-10 9l-2 4l-1 20l-4 16l-2 14l1 10l7 24l2 15l4 4l7 23l8 10l2 13l9 16l-3 5l-4 1l-11 -7l-7 2l-8 -7l-7 -2l-9 -6l-8 3l-4 -3l-4 -13l-2 -1l-14 -5l-11 -4l-5 -12 l-9 -8l-6 -6l-6 -1l-6 2l-4 4l-1 5v2l2 19l1 10zM197 399l9 -11l1 -4l-1 -5l-3 -2l-15 -3l-11 1h-14l-9 10l-12 12v10l-9 14l-4 8l-3 5v13l-12 25v2l2 10l10 10l16 4l5 -1l11 -3h16l5 -4l3 -8l7 -41l8 -27l-2 -11z" />
<glyph unicode="&#xed;" d="M6 216h6l13 9l11 15l22 13l14 13l15 1l6 9l11 6l10 10l17 11l15 8l5 1l14 -4l17 -14l10 -12l4 -16l-4 -22l-10 -28l-7 -23l-6 -6l-5 -10l-5 -6l2 -14l-6 -9v-22l-6 -7l2 -3l8 2h14l6 8l11 5l6 6l24 11l75 57l8 -2l3 -3l1 -5l-4 -13l-7 -14l-7 -16l-8 -9l-6 -9l-8 -5 l-11 -9l-12 -9l-25 -23l-14 -7l-5 -8l-13 -3l-7 -7l-7 -5l-9 -3l-11 -1l-10 -9h-12l-8 -2h-1l-12 5l-6 4l-10 9l-2 4l-1 20l-4 16l-2 14l1 10l7 24l2 15l4 4l7 23l8 10l2 13l9 16l-3 5l-4 1l-11 -7l-7 2l-8 -7l-7 -2l-9 -6l-8 3l-4 -3l-4 -13l-2 -1l-14 -5l-11 -4l-5 -12 l-9 -8l-6 -6l-6 -1l-6 2l-4 4l-1 5v2l2 19l1 10zM264 495l16 2l20 -3l7 -6l2 -8l-1 -4l-2 -3l-17 -24l-7 -13l-11 -9l-9 -13l-29 -18l-8 -9l-6 -2l-9 -8l-5 -3l-2 -1l-9 1l-11 -1l-6 4l-9 -4l-3 3l-4 5l-1 4l1 5l2 3l13 9l10 15l11 8l7 10l10 8l4 9l7 9l8 22l7 10l8 6l4 1z " />
<glyph unicode="&#xee;" horiz-adv-x="308" d="M6 216h6l13 9l11 15l22 13l14 13l15 1l6 9l11 6l10 10l17 11l15 8l5 1l14 -4l17 -14l10 -12l4 -16l-4 -22l-10 -28l-7 -23l-6 -6l-5 -10l-5 -6l2 -14l-6 -9v-22l-6 -7l2 -3l8 2h14l6 8l11 5l6 6l24 11l75 57l8 -2l3 -3l1 -5l-4 -13l-7 -14l-7 -16l-8 -9l-6 -9l-8 -5 l-11 -9l-12 -9l-25 -23l-14 -7l-5 -8l-13 -3l-7 -7l-7 -5l-9 -3l-11 -1l-10 -9h-12l-8 -2h-1l-12 5l-6 4l-10 9l-2 4l-1 20l-4 16l-2 14l1 10l7 24l2 15l4 4l7 23l8 10l2 13l9 16l-3 5l-4 1l-11 -7l-7 2l-8 -7l-7 -2l-9 -6l-8 3l-4 -3l-4 -13l-2 -1l-14 -5l-11 -4l-5 -12 l-9 -8l-6 -6l-6 -1l-6 2l-4 4l-1 5v2l2 19l1 10zM76 391l9 6l19 17l9 5l14 14l12 8l30 31l15 9l11 13l9 5l11 2l14 -2l2 -1l7 -9l7 -7l6 -15l11 -16l3 -13l8 -14l5 -14l13 -24l-3 -9l-2 -2h-2h-13l-10 -2h-1l-7 2l-13 5l-7 8l-7 10l-11 11l-6 11l-9 11l-4 -9l-10 -4l-21 -16 l-11 -5l-7 -9l-12 -7l-8 -6l-6 -2l-14 3l-10 3l-10 -3l-5 -2l-5 2l-3 2v3v2z" />
<glyph unicode="&#xef;" d="M6 216h6l13 9l11 15l22 13l14 13l15 1l6 9l11 6l10 10l17 11l15 8l5 1l14 -4l17 -14l10 -12l4 -16l-4 -22l-10 -28l-7 -23l-6 -6l-5 -10l-5 -6l2 -14l-6 -9v-22l-6 -7l2 -3l8 2h14l6 8l11 5l6 6l24 11l75 57l8 -2l3 -3l1 -5l-4 -13l-7 -14l-7 -16l-8 -9l-6 -9l-8 -5 l-11 -9l-12 -9l-25 -23l-14 -7l-5 -8l-13 -3l-7 -7l-7 -5l-9 -3l-11 -1l-10 -9h-12l-8 -2h-1l-12 5l-6 4l-10 9l-2 4l-1 20l-4 16l-2 14l1 10l7 24l2 15l4 4l7 23l8 10l2 13l9 16l-3 5l-4 1l-11 -7l-7 2l-8 -7l-7 -2l-9 -6l-8 3l-4 -3l-4 -13l-2 -1l-14 -5l-11 -4l-5 -12 l-9 -8l-6 -6l-6 -1l-6 2l-4 4l-1 5v2l2 19l1 10zM174 421l-6 -15l-10 -6l-8 -6h-2h-2l-7 4l-16 9l-7 8l-7 12l-2 10l3 12l13 14l14 12l7 2l10 -3l5 -5l11 -16l11 -13l1 -5l-1 -6zM212 459l21 12l5 5l9 -2l13 -9l18 -23l2 -10l-1 -6l-1 -2l-12 -9l-4 -7l-12 -3l-4 -8l-10 -6 l-16 5l-10 17l-8 6l-3 5l-2 8l1 3l6 12z" />
<glyph unicode="&#xf1;" d="M65 253l7 8l10 4l9 14l11 9l9 3l12 -2l12 -3l18 -21l5 -8l4 -10l1 -9l-2 -28l-7 -14l3 -5h3h2l3 2l8 6l10 6l15 17l16 7l8 7l5 7l11 6l10 9l11 3l30 16l12 3l17 6h1l17 -5l9 -3l16 -11l4 -7l5 -14l4 -11l-1 -10l2 -10l1 -8l-1 -7l-4 -19l-1 -30l-10 -14v-3v-3l1 -1l7 -11 l5 -15l3 -2h2l10 3l10 3l6 9l10 6l3 5l8 8l10 -3l1 8l4 4l12 16l13 7l25 19l8 5l11 10l1 1h3h3l2 -2l1 -2l-2 -11l1 -16v-1l-2 -9l-12 -16l-21 -20l-14 -16l-2 -1l-8 -2l-14 -11l-17 -16l-4 -10l-11 -1l-8 -12l-12 -5l-14 -9l-14 1l-12 -1l-15 9l-10 3l-5 3l-14 19l-6 10 l-5 14v1l3 14l-4 13l-1 9l-3 8l4 5l-1 5l1 29l-1 11v15l-2 4l-4 5l-4 1l-1 -1l-34 -19l-20 -8l-9 -7l-3 -5l-48 -40l-15 -12l-11 -3l-2 -4l-2 -11l-8 -5l-11 -11l-6 6h-4l-5 -10l-6 -11l-13 -3l-2 -8l-7 -1l-8 -4l-10 -10l-8 -11l-10 3l-14 7l-7 10l-3 19l6 42l6 9l9 5l3 11 l9 7l11 14l9 2l2 12l15 29l3 11l-15 -13l-9 -1l-9 -13l-8 1l-8 -7l-22 -12l-6 -12l-19 -9l-6 5l-5 7l-1 4l13 36l6 9l27 15l8 8l17 9zM233 482l4 6l6 3l9 6l7 1l9 -2l14 -14l8 -11l2 -12l8 -14l4 -9h3l6 8l11 9l3 6l24 16l12 14l13 7l8 7l12 -3l4 -5l-3 -13l2 -10l-3 -7 l-5 -13l-6 -8l-12 -13l-9 -6l-10 -12l-10 -4l-4 -3l-11 -13l-6 -10l-12 -1l-8 -8l-10 -1l-10 -1h-1l-5 1l-2 2l-2 2l-7 12l-6 4l-4 5l-4 18l-2 9l-3 4l-3 -1l-3 -6l-7 -4l-4 -3l-1 -1l-5 -8l-14 -9l-5 -9l-7 -5l-6 -11l-9 -5l-5 -4h-2h-2l-2 1l-1 2l-4 14l-7 18v3v5l2 2 l10 9l4 9l13 10l11 17l13 9l6 12z" />
<glyph unicode="&#xf2;" horiz-adv-x="329" d="M-14 191l6 10l9 14l2 1l12 4l9 13l21 16l16 15l10 3l50 31l26 10l28 7l11 3l10 3l13 6h2l28 -9l19 -7l15 -9l5 -7l2 -10l-1 -6l-7 -10l14 -8l5 -10l7 -11l4 -16l1 -25l-2 -12l-5 -8v-11l-2 -15l-2 -4l-12 -14l-5 -11l-9 -10l-2 -10l-1 -1l-30 -25l-8 -8l-6 2l-19 -18h-6 l-5 -3l-20 -10l-12 -6l-12 -1l-8 -6h-12h-12l-5 -3h-6l-9 6l-11 3l-13 13l-20 16l-5 7l-12 20l-4 14l1 20v6l4 8v19l8 27l4 10l-4 6l-7 -8l-8 -2l-4 -10l-3 -2l-5 3l-6 -11l-7 -7l-6 -1l-5 1l-1 2l-1 2v13l-2 8v3zM95 120l-3 -11l-2 -14l1 -3l5 -16l2 -11h1h11l16 -3l9 2 l12 3l8 7l11 5l9 13h9l4 10l19 15l6 13l10 9l10 22l7 11l4 22l-2 9l-1 2l-12 11l-5 8l-1 7l2 10l10 14l11 9v3l-2 3l-11 -5l-7 -7l-2 -1l-13 -5l-16 -4l-7 4h-5l-7 -12l-10 -2l-9 -11l-8 -2l-4 -2l-2 -4l-5 -11l-25 -26l-3 -10l-8 -19l-2 -13l-10 -7l-2 -3v-3zM237 399 l9 -11l1 -4l-1 -5l-3 -2l-15 -3l-11 1h-14l-9 10l-12 12v10l-9 14l-4 8l-3 5v13l-12 25v2l2 10l10 10l16 4l5 -1l11 -3h16l5 -4l3 -8l7 -41l8 -27l-2 -11z" />
<glyph unicode="&#xf3;" horiz-adv-x="329" d="M-14 191l6 10l9 14l2 1l12 4l9 13l21 16l16 15l10 3l50 31l26 10l28 7l11 3l10 3l13 6h2l28 -9l19 -7l15 -9l5 -7l2 -10l-1 -6l-7 -10l14 -8l5 -10l7 -11l4 -16l1 -25l-2 -12l-5 -8v-11l-2 -15l-2 -4l-12 -14l-5 -11l-9 -10l-2 -10l-1 -1l-30 -25l-8 -8l-6 2l-19 -18h-6 l-5 -3l-20 -10l-12 -6l-12 -1l-8 -6h-12h-12l-5 -3h-6l-9 6l-11 3l-13 13l-20 16l-5 7l-12 20l-4 14l1 20v6l4 8v19l8 27l4 10l-4 6l-7 -8l-8 -2l-4 -10l-3 -2l-5 3l-6 -11l-7 -7l-6 -1l-5 1l-1 2l-1 2v13l-2 8v3zM95 120l-3 -11l-2 -14l1 -3l5 -16l2 -11h1h11l16 -3l9 2 l12 3l8 7l11 5l9 13h9l4 10l19 15l6 13l10 9l10 22l7 11l4 22l-2 9l-1 2l-12 11l-5 8l-1 7l2 10l10 14l11 9v3l-2 3l-11 -5l-7 -7l-2 -1l-13 -5l-16 -4l-7 4h-5l-7 -12l-10 -2l-9 -11l-8 -2l-4 -2l-2 -4l-5 -11l-25 -26l-3 -10l-8 -19l-2 -13l-10 -7l-2 -3v-3zM304 495l16 2 l20 -3l7 -6l2 -8l-1 -4l-2 -3l-17 -24l-7 -13l-11 -9l-9 -13l-29 -18l-8 -9l-6 -2l-9 -8l-5 -3l-2 -1l-9 1l-11 -1l-6 4l-9 -4l-3 3l-4 5l-1 4l1 5l2 3l13 9l10 15l11 8l7 10l10 8l4 9l7 9l8 22l7 10l8 6l4 1z" />
<glyph unicode="&#xf4;" horiz-adv-x="329" d="M-14 191l6 10l9 14l2 1l12 4l9 13l21 16l16 15l10 3l50 31l26 10l28 7l11 3l10 3l13 6h2l28 -9l19 -7l15 -9l5 -7l2 -10l-1 -6l-7 -10l14 -8l5 -10l7 -11l4 -16l1 -25l-2 -12l-5 -8v-11l-2 -15l-2 -4l-12 -14l-5 -11l-9 -10l-2 -10l-1 -1l-30 -25l-8 -8l-6 2l-19 -18h-6 l-5 -3l-20 -10l-12 -6l-12 -1l-8 -6h-12h-12l-5 -3h-6l-9 6l-11 3l-13 13l-20 16l-5 7l-12 20l-4 14l1 20v6l4 8v19l8 27l4 10l-4 6l-7 -8l-8 -2l-4 -10l-3 -2l-5 3l-6 -11l-7 -7l-6 -1l-5 1l-1 2l-1 2v13l-2 8v3zM95 120l-3 -11l-2 -14l1 -3l5 -16l2 -11h1h11l16 -3l9 2 l12 3l8 7l11 5l9 13h9l4 10l19 15l6 13l10 9l10 22l7 11l4 22l-2 9l-1 2l-12 11l-5 8l-1 7l2 10l10 14l11 9v3l-2 3l-11 -5l-7 -7l-2 -1l-13 -5l-16 -4l-7 4h-5l-7 -12l-10 -2l-9 -11l-8 -2l-4 -2l-2 -4l-5 -11l-25 -26l-3 -10l-8 -19l-2 -13l-10 -7l-2 -3v-3zM136 391l9 6 l19 17l9 5l14 14l12 8l30 31l15 9l11 13l9 5l11 2l14 -2l2 -1l7 -9l7 -7l6 -15l11 -16l3 -13l8 -14l5 -14l13 -24l-3 -9l-2 -2h-2h-13l-10 -2h-1l-7 2l-13 5l-7 8l-7 10l-11 11l-6 11l-9 11l-4 -9l-10 -4l-21 -16l-11 -5l-7 -9l-12 -7l-8 -6l-6 -2l-14 3l-10 3l-10 -3l-5 -2 l-5 2l-3 2v3v2z" />
<glyph unicode="&#xf5;" horiz-adv-x="329" d="M-14 191l6 10l9 14l2 1l12 4l9 13l21 16l16 15l10 3l50 31l26 10l28 7l11 3l10 3l13 6h2l28 -9l19 -7l15 -9l5 -7l2 -10l-1 -6l-7 -10l14 -8l5 -10l7 -11l4 -16l1 -25l-2 -12l-5 -8v-11l-2 -15l-2 -4l-12 -14l-5 -11l-9 -10l-2 -10l-1 -1l-30 -25l-8 -8l-6 2l-19 -18h-6 l-5 -3l-20 -10l-12 -6l-12 -1l-8 -6h-12h-12l-5 -3h-6l-9 6l-11 3l-13 13l-20 16l-5 7l-12 20l-4 14l1 20v6l4 8v19l8 27l4 10l-4 6l-7 -8l-8 -2l-4 -10l-3 -2l-5 3l-6 -11l-7 -7l-6 -1l-5 1l-1 2l-1 2v13l-2 8v3zM95 120l-3 -11l-2 -14l1 -3l5 -16l2 -11h1h11l16 -3l9 2 l12 3l8 7l11 5l9 13h9l4 10l19 15l6 13l10 9l10 22l7 11l4 22l-2 9l-1 2l-12 11l-5 8l-1 7l2 10l10 14l11 9v3l-2 3l-11 -5l-7 -7l-2 -1l-13 -5l-16 -4l-7 4h-5l-7 -12l-10 -2l-9 -11l-8 -2l-4 -2l-2 -4l-5 -11l-25 -26l-3 -10l-8 -19l-2 -13l-10 -7l-2 -3v-3zM207 482l4 6 l6 3l9 6l7 1l9 -2l14 -14l8 -11l2 -12l8 -14l4 -9h3l6 8l11 9l3 6l24 16l12 14l13 7l8 7l12 -3l4 -5l-3 -13l2 -10l-3 -7l-5 -13l-6 -8l-12 -13l-9 -6l-10 -12l-10 -4l-4 -3l-11 -13l-6 -10l-12 -1l-8 -8l-10 -1l-10 -1h-1l-5 1l-2 2l-2 2l-7 12l-6 4l-4 5l-4 18l-2 9l-3 4 l-3 -1l-3 -6l-7 -4l-4 -3l-1 -1l-5 -8l-14 -9l-5 -9l-7 -5l-6 -11l-9 -5l-5 -4h-2h-2l-2 1l-1 2l-4 14l-7 18v3v5l2 2l10 9l4 9l13 10l11 17l13 9l6 12z" />
<glyph unicode="&#xf6;" horiz-adv-x="329" d="M-14 191l6 10l9 14l2 1l12 4l9 13l21 16l16 15l10 3l50 31l26 10l28 7l11 3l10 3l13 6h2l28 -9l19 -7l15 -9l5 -7l2 -10l-1 -6l-7 -10l14 -8l5 -10l7 -11l4 -16l1 -25l-2 -12l-5 -8v-11l-2 -15l-2 -4l-12 -14l-5 -11l-9 -10l-2 -10l-1 -1l-30 -25l-8 -8l-6 2l-19 -18h-6 l-5 -3l-20 -10l-12 -6l-12 -1l-8 -6h-12h-12l-5 -3h-6l-9 6l-11 3l-13 13l-20 16l-5 7l-12 20l-4 14l1 20v6l4 8v19l8 27l4 10l-4 6l-7 -8l-8 -2l-4 -10l-3 -2l-5 3l-6 -11l-7 -7l-6 -1l-5 1l-1 2l-1 2v13l-2 8v3zM95 120l-3 -11l-2 -14l1 -3l5 -16l2 -11h1h11l16 -3l9 2 l12 3l8 7l11 5l9 13h9l4 10l19 15l6 13l10 9l10 22l7 11l4 22l-2 9l-1 2l-12 11l-5 8l-1 7l2 10l10 14l11 9v3l-2 3l-11 -5l-7 -7l-2 -1l-13 -5l-16 -4l-7 4h-5l-7 -12l-10 -2l-9 -11l-8 -2l-4 -2l-2 -4l-5 -11l-25 -26l-3 -10l-8 -19l-2 -13l-10 -7l-2 -3v-3zM201 421 l-6 -15l-10 -6l-8 -6h-2h-2l-7 4l-16 9l-7 8l-7 12l-2 10l3 12l13 14l14 12l7 2l10 -3l5 -5l11 -16l11 -13l1 -5l-1 -6zM239 459l21 12l5 5l9 -2l13 -9l18 -23l2 -10l-1 -6l-1 -2l-12 -9l-4 -7l-12 -3l-4 -8l-10 -6l-16 5l-10 17l-8 6l-3 5l-2 8l1 3l6 12z" />
<glyph unicode="&#xf7;" d="M295 449q0 -23 -16.5 -39t-39.5 -16t-39 16t-16 39t16 39t39 16t39.5 -16t16.5 -39zM428 252h-377v60h377v-60zM295 115q0 -23 -16.5 -39t-39.5 -16t-39 16t-16 39t16 39t39 16t39.5 -16t16.5 -39z" />
<glyph unicode="&#xf8;" horiz-adv-x="353" d="M30 45l-13 5l-7 17l-10 7l-7 9l-4 31l2 24l6 29l9 15l2 7l5 6l8 17l10 13l11 9l5 8l28 21l12 17l21 5l11 11l9 7l10 -2l9 11l2 1l12 -2l10 -1l7 14l11 2l30 6l22 9h1l8 -2l14 -2l12 -8l20 -4l10 -1l10 13l15 13l25 21l31 21l21 19l2 1h9l15 -1l3 -3l1 -6l-2 -9l-10 -9 l-14 -11l-8 -14l-16 -4l-11 -16l-11 -4l-4 -8l-13 -10l-7 -12l15 -17l3 -9l12 -25l3 -14v-5l-8 -34l-2 -16l-11 -26l-19 -23l-10 -16l-32 -33l-45 -28l-10 -2l-5 8h-3l-4 -10l1 -6l-7 -5l-14 -6l-7 -8l-15 -7l-14 -8l-20 -5l-22 3l-18 5l-7 6l-10 -8l-17 -25l-10 -8l-11 -16 l-6 -10v-11v-8l-6 -34l-8 -16l-8 -8l-10 -2l-21 5l-20 21l-10 34l6 23l31 44l25 30zM57 73l2 8l10 2l6 10l7 7l6 14l11 6l10 9l13 10l15 23l15 13l30 39l31 23l17 18l10 10l-10 -5l-10 -7l-11 2l-9 -4l-6 1l-6 -3l-4 -1l-6 2l-8 7l-5 11l-1 10l-8 3l-4 -2l-3 -2l-17 -25 l-43 -37l-16 -23l-8 -7l-5 -6l-7 -4l-4 -11l-5 -7l-6 -22l-6 -9l-1 -9l-4 -16l2 -7l3 -12l4 -4l11 -4zM145 76l11 -1l7 3l11 7l17 9l14 11l23 10l20 15l17 13l11 1l5 2l2 2l9 13l20 17l5 11l22 36l3 7l1 5l-2 6l-3 8l-2 10l-25 17l-13 -11l-5 -10l-7 -6l-5 -15l-8 -3l-9 -17 l-13 -5l-5 -8l-10 -7l-9 -16l-18 -17l-16 -22l-20 -25l-8 -14l-14 -16z" />
<glyph unicode="&#xf9;" d="M2 182l3 19l2 14l11 11l12 9l10 -1l6 14l13 3l13 16l11 -1l7 12l9 7l6 -1l7 9l10 2l7 3l10 1h10h2l13 -14l8 -9l7 -12l4 -20l-1 -5l-2 -3l-9 -4l-2 -12l-6 -15l-4 -8l-8 -6l-4 -9l-8 -1l-2 -11l-4 -16l-3 -4l-7 -9l-2 -8l-5 -13l-1 -6l1 -4l3 -3l2 -1l1 1l21 15l7 4l10 2 l5 9l12 11l8 8l11 2l2 9l12 7l12 11l17 14l5 7h8l5 14l30 26l6 10l11 7l25 23l12 7l18 3l13 -1l3 -3l14 -14l16 -13l5 -10l1 -5l-23 -56l-13 -44l-3 -16l-6 -2l1 -16l10 4l14 8l13 4l6 10l16 14l8 9l7 4l10 1l3 10l11 13l22 18l6 2l3 -1l3 -3l4 -5l2 -6l5 -4l1 -16l-5 -3 l-9 -12l-9 -1l-5 -7h-5l-9 -9l-24 -28l-15 -9l-7 2l-6 -8l-17 -12l-11 -14l-15 -5l-21 -20l-9 -3l-4 1l-12 11l-8 6l-7 11l-20 25v1v1l2 14v16l8 17v18l9 16l-2 7l2 12l-12 -7l-10 -13h-12l-6 -14l-7 -3l-7 -7l-11 1l-2 -13l-9 -6l-7 -8l-5 -2l-10 -11h-10l-3 -12l-9 -9 l-7 -7l-10 1l-3 -11l-3 -5l-1 -1l-13 -3l-31 -28l-15 1l-11 1l-7 3l-8 6l-8 10l-9 8l-15 25l-7 11v10l3 21l18 37l4 11h5l1 8l7 8v7l-17 -8l-10 -8l-9 -4l-3 2h-2l-4 -9l-5 -1l-5 -5l-6 -5l-5 -1zM289 399l9 -11l1 -4l-1 -5l-3 -2l-15 -3l-11 1h-14l-9 10l-12 12v10l-9 14 l-4 8l-3 5v13l-12 25v2l2 10l10 10l16 4l5 -1l11 -3h16l5 -4l3 -8l7 -41l8 -27l-2 -11z" />
<glyph unicode="&#xfa;" d="M2 182l3 19l2 14l11 11l12 9l10 -1l6 14l13 3l13 16l11 -1l7 12l9 7l6 -1l7 9l10 2l7 3l10 1h10h2l13 -14l8 -9l7 -12l4 -20l-1 -5l-2 -3l-9 -4l-2 -12l-6 -15l-4 -8l-8 -6l-4 -9l-8 -1l-2 -11l-4 -16l-3 -4l-7 -9l-2 -8l-5 -13l-1 -6l1 -4l3 -3l2 -1l1 1l21 15l7 4l10 2 l5 9l12 11l8 8l11 2l2 9l12 7l12 11l17 14l5 7h8l5 14l30 26l6 10l11 7l25 23l12 7l18 3l13 -1l3 -3l14 -14l16 -13l5 -10l1 -5l-23 -56l-13 -44l-3 -16l-6 -2l1 -16l10 4l14 8l13 4l6 10l16 14l8 9l7 4l10 1l3 10l11 13l22 18l6 2l3 -1l3 -3l4 -5l2 -6l5 -4l1 -16l-5 -3 l-9 -12l-9 -1l-5 -7h-5l-9 -9l-24 -28l-15 -9l-7 2l-6 -8l-17 -12l-11 -14l-15 -5l-21 -20l-9 -3l-4 1l-12 11l-8 6l-7 11l-20 25v1v1l2 14v16l8 17v18l9 16l-2 7l2 12l-12 -7l-10 -13h-12l-6 -14l-7 -3l-7 -7l-11 1l-2 -13l-9 -6l-7 -8l-5 -2l-10 -11h-10l-3 -12l-9 -9 l-7 -7l-10 1l-3 -11l-3 -5l-1 -1l-13 -3l-31 -28l-15 1l-11 1l-7 3l-8 6l-8 10l-9 8l-15 25l-7 11v10l3 21l18 37l4 11h5l1 8l7 8v7l-17 -8l-10 -8l-9 -4l-3 2h-2l-4 -9l-5 -1l-5 -5l-6 -5l-5 -1zM357 495l16 2l20 -3l7 -6l2 -8l-1 -4l-2 -3l-17 -24l-7 -13l-11 -9l-9 -13 l-29 -18l-8 -9l-6 -2l-9 -8l-5 -3l-2 -1l-9 1l-11 -1l-6 4l-9 -4l-3 3l-4 5l-1 4l1 5l2 3l13 9l10 15l11 8l7 10l10 8l4 9l7 9l8 22l7 10l8 6l4 1z" />
<glyph unicode="&#xfb;" horiz-adv-x="489" d="M2 182l3 19l2 14l11 11l12 9l10 -1l6 14l13 3l13 16l11 -1l7 12l9 7l6 -1l7 9l10 2l7 3l10 1h10h2l13 -14l8 -9l7 -12l4 -20l-1 -5l-2 -3l-9 -4l-2 -12l-6 -15l-4 -8l-8 -6l-4 -9l-8 -1l-2 -11l-4 -16l-3 -4l-7 -9l-2 -8l-5 -13l-1 -6l1 -4l3 -3l2 -1l1 1l21 15l7 4l10 2 l5 9l12 11l8 8l11 2l2 9l12 7l12 11l17 14l5 7h8l5 14l30 26l6 10l11 7l25 23l12 7l18 3l13 -1l3 -3l14 -14l16 -13l5 -10l1 -5l-23 -56l-13 -44l-3 -16l-6 -2l1 -16l10 4l14 8l13 4l6 10l16 14l8 9l7 4l10 1l3 10l11 13l22 18l6 2l3 -1l3 -3l4 -5l2 -6l5 -4l1 -16l-5 -3 l-9 -12l-9 -1l-5 -7h-5l-9 -9l-24 -28l-15 -9l-7 2l-6 -8l-17 -12l-11 -14l-15 -5l-21 -20l-9 -3l-4 1l-12 11l-8 6l-7 11l-20 25v1v1l2 14v16l8 17v18l9 16l-2 7l2 12l-12 -7l-10 -13h-12l-6 -14l-7 -3l-7 -7l-11 1l-2 -13l-9 -6l-7 -8l-5 -2l-10 -11h-10l-3 -12l-9 -9 l-7 -7l-10 1l-3 -11l-3 -5l-1 -1l-13 -3l-31 -28l-15 1l-11 1l-7 3l-8 6l-8 10l-9 8l-15 25l-7 11v10l3 21l18 37l4 11h5l1 8l7 8v7l-17 -8l-10 -8l-9 -4l-3 2h-2l-4 -9l-5 -1l-5 -5l-6 -5l-5 -1zM202 391l9 6l19 17l9 5l14 14l12 8l30 31l15 9l11 13l9 5l11 2l14 -2l2 -1 l7 -9l7 -7l6 -15l11 -16l3 -13l8 -14l5 -14l13 -24l-3 -9l-2 -2h-2h-13l-10 -2h-1l-7 2l-13 5l-7 8l-7 10l-11 11l-6 11l-9 11l-4 -9l-10 -4l-21 -16l-11 -5l-7 -9l-12 -7l-8 -6l-6 -2l-14 3l-10 3l-10 -3l-5 -2l-5 2l-3 2v3v2z" />
<glyph unicode="&#xfc;" d="M2 182l3 19l2 14l11 11l12 9l10 -1l6 14l13 3l13 16l11 -1l7 12l9 7l6 -1l7 9l10 2l7 3l10 1h10h2l13 -14l8 -9l7 -12l4 -20l-1 -5l-2 -3l-9 -4l-2 -12l-6 -15l-4 -8l-8 -6l-4 -9l-8 -1l-2 -11l-4 -16l-3 -4l-7 -9l-2 -8l-5 -13l-1 -6l1 -4l3 -3l2 -1l1 1l21 15l7 4l10 2 l5 9l12 11l8 8l11 2l2 9l12 7l12 11l17 14l5 7h8l5 14l30 26l6 10l11 7l25 23l12 7l18 3l13 -1l3 -3l14 -14l16 -13l5 -10l1 -5l-23 -56l-13 -44l-3 -16l-6 -2l1 -16l10 4l14 8l13 4l6 10l16 14l8 9l7 4l10 1l3 10l11 13l22 18l6 2l3 -1l3 -3l4 -5l2 -6l5 -4l1 -16l-5 -3 l-9 -12l-9 -1l-5 -7h-5l-9 -9l-24 -28l-15 -9l-7 2l-6 -8l-17 -12l-11 -14l-15 -5l-21 -20l-9 -3l-4 1l-12 11l-8 6l-7 11l-20 25v1v1l2 14v16l8 17v18l9 16l-2 7l2 12l-12 -7l-10 -13h-12l-6 -14l-7 -3l-7 -7l-11 1l-2 -13l-9 -6l-7 -8l-5 -2l-10 -11h-10l-3 -12l-9 -9 l-7 -7l-10 1l-3 -11l-3 -5l-1 -1l-13 -3l-31 -28l-15 1l-11 1l-7 3l-8 6l-8 10l-9 8l-15 25l-7 11v10l3 21l18 37l4 11h5l1 8l7 8v7l-17 -8l-10 -8l-9 -4l-3 2h-2l-4 -9l-5 -1l-5 -5l-6 -5l-5 -1zM267 421l-6 -15l-10 -6l-8 -6h-2h-2l-7 4l-16 9l-7 8l-7 12l-2 10l3 12 l13 14l14 12l7 2l10 -3l5 -5l11 -16l11 -13l1 -5l-1 -6zM305 459l21 12l5 5l9 -2l13 -9l18 -23l2 -10l-1 -6l-1 -2l-12 -9l-4 -7l-12 -3l-4 -8l-10 -6l-16 5l-10 17l-8 6l-3 5l-2 8l1 3l6 12z" />
</font>
</defs>
</svg>
